PDA

View Full Version : Can't view .MTS file on Samsung LN46C600



hartlenb
01-10-2011, 07:59 AM
I've tried the following file on both my Samsung BD-C5500 (device profile: Samsung BDP) and Samsung LN46C600 (device profile: Samsung C). It plays beautifully on the BDP without transcoding. It won't play on the LCDTV at all (with or without transcoding enabled).

FFmpeg info:

FFmpeg version SVN-r26071, Copyright (c) 2000-2010 the FFmpeg developers
built on Dec 22 2010 10:30:32 with gcc 4.4.2
configuration: --enable-memalign-hack --arch=x86 --target-os=mingw32 --cross-prefix=i686-mingw32- --enable-static --disable-shared --enable-zlib --disable-ffprobe --disable-ffplay --prefix=/media/windows-share/ffmpeg --extra-cflags=-U__STRICT_ANSI__ --enable-libmp3lame --enable-libx264 --enable-gpl --extra-libs='-lx264 -lpthread' --enable-runtime-cpudetect
libavutil 50.35. 0 / 50.35. 0
libavcore 0.16. 0 / 0.16. 0
libavcodec 52.100. 0 / 52.100. 0
libavformat 52.88. 0 / 52.88. 0
libavdevice 52. 2. 2 / 52. 2. 2
libavfilter 1.69. 0 / 1.69. 0
libswscale 0.12. 0 / 0.12. 0

Seems stream 0 codec frame rate differs from container frame rate: 59.94 (60000/1001) -> 59.94 (60000/1001)
Input #0, mpegts, from '\\Dns321\Volume_1\Media\\Test Videos\#B1 Test MTS.mts':
Duration: 00:00:34.04, start: 0.476822, bitrate: 15655 kb/s
Program 1
Stream #0.0[0x1011]: Video: h264, yuv420p, 1920x1080 [PAR 1:1 DAR 16:9], 59.96 fps, 59.94 tbr, 90k tbn, 59.94 tbc
Stream #0.1[0x1100]: Audio: ac3, 48000 Hz, stereo, s16, 256 kb/s
At least one output file must be specified


---> DB Level Info: 40

Paul
01-10-2011, 10:17 AM
Does it play using PCSM? If possible, can you please send that file in to support (at) conceiva (dot) com so that we could try it here?

hartlenb
01-11-2011, 01:01 AM
Dennis - it will play on the TV (and still on the BDP) if I change the file extension to MPG. I'll send the file or link (http://www.megaupload.com/?d=AHHX9AZX) to support as you suggest.

Paul
01-11-2011, 08:50 AM
Thanks - we'll check it out and get back to you via e-mail.