PDA

View Full Version : Reverting To Previous Versions



bewsy
01-26-2011, 07:29 AM
I have just recently updated my version to 2.1.13. However, as soon as I did this, none of my MKV files will stream. This was NOT a problem with 2.1.12.

Is there anyway that I can re-download v2.1.12?

Thanks,

bewsy.

Paul
01-27-2011, 08:43 AM
No, we'd rather not revert back to previous versions, but fix issues in the current one and make it work for the future. Can you please tell me which device and device profile you are using?

bewsy
01-27-2011, 11:52 PM
Dennis,

I'm viewing with a Samsung PN58B850, using the Samsung B (and have also used the Samsung C) profile.

Thanks,

Mike.

bewsy
01-28-2011, 08:31 AM
As well, a by product of attempting to view these .mkv files that used to work, is that network access to the media server PC crashes, and requires a power cycle to recover.

Below is the FFmpeg Information for one of the files in question:

FFmpeg version git-c3897d7, Copyright (c) 2000-2011 the FFmpeg developers
built on Jan 20 2011 13:56:32 with gcc 4.4.2
configuration: --enable-memalign-hack --arch=x86 --target-os=mingw32 --cross-prefix=i686-mingw32- --enable-static --disable-shared --enable-zlib --disable-ffprobe --disable-ffplay --prefix=/media/windows/ffmpeg --extra-cflags=-U__STRICT_ANSI__ --enable-libmp3lame --enable-libx264 --enable-gpl --extra-libs='-lx264 -lpthread' --enable-runtime-cpudetect
libavutil 50.36. 0 / 50.36. 0
libavcore 0.16. 1 / 0.16. 1
libavcodec 52.108. 0 / 52.108. 0
libavformat 52.94. 0 / 52.94. 0
libavdevice 52. 2. 3 / 52. 2. 3
libavfilter 1.74. 0 / 1.74. 0
libswscale 0.12. 0 / 0.12. 0
[matroska,webm @ 016bd680] Estimating duration from bitrate, this may be inaccurate

Seems stream 0 codec frame rate differs from container frame rate: 47.95 (5000000/104271) -> 24.00 (24/1)
Input #0, matroska,webm, from 'D:\Battlestar Galactica\Season 1\Battlestar.Galactica.S01E02.Water.720p.HDDVD.x26 4-SiNNERS.mkv':
Duration: 00:43:39.13, start: 0.000000, bitrate: 640 kb/s
Stream #0.0(eng): Video: h264, yuv420p, 1280x720, PAR 1:1 DAR 16:9, 23.98 fps, 24 tbr, 1k tbn, 47.95 tbc
Stream #0.1: Audio: ac3, 48000 Hz, 5.1, s16, 640 kb/s
At least one output file must be specified


---> DB Level Info: 51

Paul
01-28-2011, 08:49 AM
This file will need to be transcoded in both Samsung B and C profiles. It's possible that transcoding is failing. Can you please turn on logging (see this thread: http://forum.conceiva.com/showthread.php/419-FAQ-How-to-turn-on-diagnostic-logging) then try to play that file again and once it fails, stop the server and send all logs to support (at) conceiva (dot) com - we'll see what's happening then.

bewsy
01-28-2011, 10:21 AM
I have sent the log files. Please let me know if there is anything else that you need.

Thanks,

bewsy.

Paul
01-28-2011, 10:29 AM
Thanks for the logs - someone will get back to you via e-mail.

bewsy
01-28-2011, 11:31 AM
It appears that the Samsung BDP profile works. I'm not sure if there is any reason that I shouldn't just use that profile instead. However for now, I guess I will.

Paul
01-28-2011, 11:34 AM
The BDP profile will let that file through without transcoding. If the profile works better for you, then just use that one. Please let me know if there're any issues with that profile and the TV.