PDA

View Full Version : Unable to play MKV in Mezzmo UI



bbear
01-27-2011, 01:49 PM
Apologies if someone has already covered this, but since all the posts I read about MKV problems talk about problems watching them on their DLNA device, I though this issue might be different.

This is my first time of trying to play a Matroska, MKV file. The MKV plays fine in Media Player Classic. In Mezzmo I can see the icon/artwork but when I Right-click, Play in the Mezzmo UI, it brings up MediaInfo.

I queried the ffmpeg info:


FFmpeg version git-c3897d7, Copyright (c) 2000-2011 the FFmpeg developers
built on Jan 20 2011 13:56:32 with gcc 4.4.2
configuration: --enable-memalign-hack --arch=x86 --target-os=mingw32 --cross-prefix=i686-mingw32- --enable-static --disable-shared --enable-zlib --disable-ffprobe --disable-ffplay --prefix=/media/windows/ffmpeg --extra-cflags=-U__STRICT_ANSI__ --enable-libmp3lame --enable-libx264 --enable-gpl --extra-libs='-lx264 -lpthread' --enable-runtime-cpudetect
libavutil 50.36. 0 / 50.36. 0
libavcore 0.16. 1 / 0.16. 1
libavcodec 52.108. 0 / 52.108. 0
libavformat 52.94. 0 / 52.94. 0
libavdevice 52. 2. 3 / 52. 2. 3
libavfilter 1.74. 0 / 1.74. 0
libswscale 0.12. 0 / 0.12. 0
[matroska,webm @ 01b0ddc0] Unknown entry 0x80
[matroska,webm @ 01b0ddc0] Estimating duration from bitrate, this may be inaccurate
Input #0, matroska,webm, from 'H:\movie.mkv':
Duration: 01:48:30.83, start: 0.000000, bitrate: N/A
Stream #0.0(eng): Video: h264, yuv420p, 1280x720, PAR 1:1 DAR 16:9, 23.98 fps, 23.98 tbr, 1k tbn, 47.95 tbc
Stream #0.1: Audio: aac, 48000 Hz, stereo, s16
At least one output file must be specified


---> DB Level Info: 31


Does anyone have any ideas on how to get Mezzmo to play it?

thanks

Paul
01-27-2011, 02:04 PM
Mezzmo does not have a built-in player anymore, but rather passes that file to your system to play. Since MediaInfo comes up, it means that MediaInfo is the registered application to handle MKV files. You'll need to run your media player (whichever one you use) and re-assign MKV files to be handled by it.

bbear
01-27-2011, 02:32 PM
Thanks Dennis,
you were right, MKV extension was registered to MediaInfo for some reason. I just went into Windows Explorer and registered MKV to Media Player Classic and I can now play the movie in Mezzmo. Also, Mezzmo streams the movie to my Sony BDPS570 perfectly (well, at least for the few minutes that I have watched it so far)