PDA

View Full Version : which profile to use on Hisense Streamer?



blastman
02-10-2011, 02:36 AM
Hi all,

I have a Hisense media streamer in the bedroom connected via cat5 to my network. I'm currently using the default profile but it seems to want to transcode everything when i know that all the files I have on my HTPC run on it fine.

I have the option on the hisense to either play the videos via Upnp (mezzmo) or browse the network share.

Browsing the share works great, but I'd like to use the upnp feature as it's less button pressing on the remote.

Any idea what profile I should be using? Or is it a case of trying them one at a time and see what happens?

Cheers in advance

Tristan

Paul
02-10-2011, 08:06 AM
Hi Tristan,

Can you please tell me the exact model of your streamer?

I'd try the Xtreamer or DVico profiles to start with.

blastman
02-10-2011, 06:48 PM
ok cool thanks.

the streamer is a Hi Sense MP-800H

Paul
02-11-2011, 08:05 AM
Let me know how those profiles go and whether a new one needs to be created (in case something doesn't play properly on the HiSense using any of the already created profiles).

blastman
02-15-2011, 03:49 AM
Hi Dennis,

I've tried the two suggested profiles and the DVico seems to work better (only very slightly), but it still produces choppy play back to my device.

I've been using avatar as my test subject as it's about 8gig and plays fine when played via a network share.

I noticed that the process mezzmomediaserver.exe shoots up in cpu usage to about 70-80% when using Upnp but when reading from the share the cpu doesn't even flinch.

I've also noticed that the size of the file is mis reported when using Upnp, not that it bothers me as but i thought I'd mention it. When connected via mezzmo ALL my files read at 2g when in truth they are all much larger.

hope this info helps :)

looking forward to your response.

tristan

Paul
02-15-2011, 08:08 AM
Hi Tristan,

Sounds like those files are being transcoded, but perhaps they shouldn't be. Can you please post FFmpeg information on the Avatar movie? Also, which DVico profile are you using?

blastman
02-17-2011, 03:12 AM
Hi Dennis,

Below is the info you asked for. I'm using the TviX 6500 profile.

FFmpeg version git-c3897d7, Copyright (c) 2000-2011 the FFmpeg developers
built on Jan 20 2011 13:56:32 with gcc 4.4.2
configuration: --enable-memalign-hack --arch=x86 --target-os=mingw32 --cross-prefix=i686-mingw32- --enable-static --disable-shared --enable-zlib --disable-ffprobe --disable-ffplay --prefix=/media/windows/ffmpeg --extra-cflags=-U__STRICT_ANSI__ --enable-libmp3lame --enable-libx264 --enable-gpl --extra-libs='-lx264 -lpthread' --enable-runtime-cpudetect
libavutil 50.36. 0 / 50.36. 0
libavcore 0.16. 1 / 0.16. 1
libavcodec 52.108. 0 / 52.108. 0
libavformat 52.94. 0 / 52.94. 0
libavdevice 52. 2. 3 / 52. 2. 3
libavfilter 1.74. 0 / 1.74. 0
libswscale 0.12. 0 / 0.12. 0
[matroska,webm @ 016bd6a0] max_analyze_duration reached
[matroska,webm @ 016bd6a0] Estimating duration from bitrate, this may be inaccurate

Seems stream 0 codec frame rate differs from container frame rate: 47.95 (5000000/104271) -> 23.98 (24000/1001)
Input #0, matroska,webm, from 'E:\HD Films\Avatar.mkv':
Duration: 02:41:41.82, start: 0.000000, bitrate: 640 kb/s
Stream #0.0(eng): Video: h264, yuv420p, 1280x720 [PAR 1:1 DAR 16:9], 23.98 fps, 23.98 tbr, 1k tbn, 47.95 tbc
Metadata:
title : Avatar.2009.720p.BluRay.x264-TDM
Stream #0.1(eng): Audio: ac3, 48000 Hz, 5.1, s16, 640 kb/s
Metadata:
title : English
Stream #0.2: Subtitle: [0][0][0][0] / 0x0000
At least one output file must be specified


---> DB Level Info: 41


TRistan

Paul
02-17-2011, 08:02 AM
Hi Tristan,

Ok, it's transcoding becuase of the audio bitrate. Please send a message to support (at) conceiva (dot) com and we'll send you an updated device profile to try.

blastman
02-18-2011, 05:32 AM
email sent.

Thanks Dennis. :)