PDA

View Full Version : BD-D5300 format issue



tekiusfanatikus
04-23-2011, 12:18 AM
I have a Samsung BD-D5300. It says the supported audio are:

Dolby Digital Audio Decording Format available
Dolby Digital plus Audio Decording Format available
Dolby True HD Audio Decording Format
DTS Audio Decording Format available
LPCM Audio Decording Format available
AAC available
MP3 Audio Decording Format available
WMA Audio Decording Format available

Supported video formats are:

MPEG 2/4 available
DIVX (including XVID) available
DivX HD, Video Decoding Format available
AVCHD, Video Decoding Format available
MKV, Video Decoding Format available
WMV (1 / 2 / 3 / 7 / 9) available
JPEG available
HD JPEG, Video Decoding Format available

The video file I'm trying to view is an MKV with the following formats:
Video: MPEG4 ISO advanced
Audio: A_TRUEHD

The Mezzmo instance sees it and I can see it through my BD player. However, when I try to play it, it says invalid format.

I had assumed it was the audio, however, it seems that I have the proper audio and video codecs.

tekiusfanatikus
04-23-2011, 10:20 AM
Here's the FFmpeg info (movie title omitted):



FFmpeg version git-N-28463-gc5dcb3d, Copyright (c) 2000-2011 the FFmpeg developers
built on Apr 20 2011 10:16:52 with gcc 4.4.2
configuration: --enable-memalign-hack --arch=x86 --target-os=mingw32 --cross-prefix=i686-mingw32- --enable-static --disable-shared --enable-zlib --disable-ffprobe --disable-ffplay --prefix=/media/windows/ffmpeg --enable-libmp3lame --enable-libx264 --enable-gpl --extra-libs='-lx264 -lpthread' --enable-runtime-cpudetect --pkg-config=pkg-config
libavutil 50. 40. 1 / 50. 40. 1
libavcodec 52.120. 0 / 52.120. 0
libavformat 52.108. 0 / 52.108. 0
libavdevice 52. 4. 0 / 52. 4. 0
libavfilter 1. 79. 1 / 1. 79. 1
libswscale 0. 13. 0 / 0. 13. 0
[matroska,webm @ 01424cc0] max_analyze_duration reached
[matroska,webm @ 01424cc0] Estimating duration from bitrate, this may be inaccurate

Seems stream 0 codec frame rate differs from container frame rate: 47.95 (20000000/417083) -> 23.98 (24000/1001)
Input #0, matroska,webm, from 'D:\streaming\Movies\abc.mkv':
Duration: 01:35:34.72, start: 0.000000, bitrate: N/A
Stream #0.0(eng): Video: h264 (High), yuv420p, 1920x816 [PAR 1:1 DAR 40:17], 23.98 fps, 23.98 tbr, 1k tbn, 47.95 tbc
Metadata:
title : abc
Stream #0.1(eng): Audio: truehd, 48000 Hz, 7.1, s32 (default)
Metadata:
title : abc
Stream #0.2(eng): Subtitle: dvdsub
Metadata:
title : abc
Stream #0.3(fre): Subtitle: dvdsub
Metadata:
title : abc
Stream #0.4(spa): Subtitle: dvdsub
Metadata:
title : abc
Stream #0.5(por): Subtitle: dvdsub
Metadata:
title : abc
At least one output file must be specified


---> DB Level Info: 41



BTW, duration is reported by Video Inpsector @ 00:23:59... movie is closer to 1:30:00

tekiusfanatikus
04-24-2011, 12:17 AM
Man, I should have put all of this to begin with... I'm at version 2.3.1.0 FWIW...

tekiusfanatikus
04-24-2011, 09:41 PM
I have another issue with another file...

Container: MKV
Video: MPEG4 ISO advanced
Audio: Dolby AC3

Paul
04-26-2011, 08:35 PM
Are you using the "Samsung BDP" device profile? Check the Media Devices dialog in Mezzmo to make sure you have the right device profile assigned to your device.

tekiusfanatikus
04-26-2011, 11:12 PM
Yes, I have assigned the appropriate profile to the device.

Paul
04-27-2011, 09:32 AM
We will need to see logs for this. Please turn on logging (see http://forum.conceiva.com/showthread.php/419-FAQ-How-to-turn-on-diagnostic-logging) and try streaming the problem MKV again. Stop your Mezzmo media server and send us the logs to support [at] conceiva [dot] com. If possible, we would like to download the same MKV movie and try it here with our Samsung BDP player. In your email to us, include a link to it - that will help diagnose the problem.

tekiusfanatikus
04-27-2011, 10:43 AM
I've sent an email with the information requested.