PDA

View Full Version : Mezzmo and Samsung c5700 mkv audio not transcoding



t1b1m
05-03-2011, 03:05 AM
FFmpeg version git-N-28463-gc5dcb3d, Copyright (c) 2000-2011 the FFmpeg developers
built on Apr 20 2011 10:16:52 with gcc 4.4.2
configuration: --enable-memalign-hack --arch=x86 --target-os=mingw32 --cross-prefix=i686-mingw32- --enable-static --disable-shared --enable-zlib --disable-ffprobe --disable-ffplay --prefix=/media/windows/ffmpeg --enable-libmp3lame --enable-libx264 --enable-gpl --extra-libs='-lx264 -lpthread' --enable-runtime-cpudetect --pkg-config=pkg-config
libavutil 50. 40. 1 / 50. 40. 1
libavcodec 52.120. 0 / 52.120. 0
libavformat 52.108. 0 / 52.108. 0
libavdevice 52. 4. 0 / 52. 4. 0
libavfilter 1. 79. 1 / 1. 79. 1
libswscale 0. 13. 0 / 0. 13. 0
[matroska,webm @ 019f4df0] max_analyze_duration reached
[matroska,webm @ 019f4df0] Estimating duration from bitrate, this may be inaccurate
Input #0, matroska,webm, from 'D:\Temp\Milf.2010.720p.BluRay.x264-SAiMORNY\saimorny-milf.720p.mkv':
Duration: 01:28:26.41, start: 0.000000, bitrate: 1536 kb/s
Stream #0.0(eng): Video: h264 (High), yuv420p, 1280x720, PAR 1:1 DAR 16:9, 23.98 fps, 23.98 tbr, 1k tbn, 47.95 tbc
Stream #0.1(eng): Audio: dca (DTS), 48000 Hz, 5.1, s16, 1536 kb/s (default)
Stream #0.2(swe): Subtitle: [0][0][0][0] / 0x0000 (default)
Stream #0.3(nor): Subtitle: [0][0][0][0] / 0x0000
Stream #0.4(fin): Subtitle: [0][0][0][0] / 0x0000
Stream #0.5(dan): Subtitle: [0][0][0][0] / 0x0000
At least one output file must be specified


---> DB Level Info: 31
video is ok
audio is not transcoding
the profile is Samsung C

Paul
05-03-2011, 09:20 AM
I can't seem to find a manual for your device - I assume it's a UE C5700 TV? What does it say as far as format support goes?

Please also try the Samsung B device profile to see if that works better.

t1b1m
05-03-2011, 11:57 PM
WORKING MAN !!!!! 10ks !

t1b1m
05-04-2011, 02:05 AM
but my resy of my mkv's format not supported with Samsung B profiles, with Samsung C profiles works fine, only this with DTS not working corectly (only video)
http://www.samsung.de/de/support/detail.aspx?aguid=8b3f3ab7-abd3-4674-b8b7-f5cf53d41711&stab=specs this is the tv

Paul
05-04-2011, 08:55 AM
I'm not sure I understand correctly - do you mean that with Samsung B device profile MKVs do not play? Is transcoding turned on or off?

What should happen with the Samsung B device profile (and transcoding turned on) is that MKVs with various audio streams, except DTS (DCA), will play natively and MKVs with DTS sound will be transcoded.

t1b1m
05-04-2011, 11:28 PM
If selected profile is SAMSUNG C --then plays all of the MKV-s except with DTS sound (video plays fine but no audio)
If selected profile is SAMSUNG B -- then plays MKV-s with DTS sound (video-audio ok) but half of the rest of my movies
(played natively with Samsung PC Share) is showing "format not supported".
Only solution that is working is always change the profile.
this is working only with selected profile C


FFmpeg version git-N-28463-gc5dcb3d, Copyright (c) 2000-2011 the FFmpeg developers
built on Apr 20 2011 10:16:52 with gcc 4.4.2
configuration: --enable-memalign-hack --arch=x86 --target-os=mingw32 --cross-prefix=i686-mingw32- --enable-static --disable-shared --enable-zlib --disable-ffprobe --disable-ffplay --prefix=/media/windows/ffmpeg --enable-libmp3lame --enable-libx264 --enable-gpl --extra-libs='-lx264 -lpthread' --enable-runtime-cpudetect --pkg-config=pkg-config
libavutil 50. 40. 1 / 50. 40. 1
libavcodec 52.120. 0 / 52.120. 0
libavformat 52.108. 0 / 52.108. 0
libavdevice 52. 4. 0 / 52. 4. 0
libavfilter 1. 79. 1 / 1. 79. 1
libswscale 0. 13. 0 / 0. 13. 0
[matroska,webm @ 00314d20] Estimating duration from bitrate, this may be inaccurate
Input #0, matroska,webm, from 'F:\Movies\AC DC Live at Donington (1991) Blu-ray 720p AVC AC3 5.1 AtZLIT.mkv':
Metadata:
title : 00000acdc
Duration: 01:58:05.08, start: 0.000000, bitrate: 640 kb/s
Chapter #0.0: start 0.000000, end 330.747000
Metadata:
title : 00:00:00.000
Chapter #0.1: start 330.747000, end 666.875000
Metadata:
title : 00:05:30.747
Chapter #0.2: start 666.875000, end 909.909000
Metadata:
title : 00:11:06.875
Chapter #0.3: start 909.909000, end 1169.919000
Metadata:
title : 00:15:09.909
Chapter #0.4: start 1169.919000, end 1382.715000
Metadata:
title : 00:19:29.919
Chapter #0.5: start 1382.715000, end 1571.195000
Metadata:
title : 00:23:02.715
Chapter #0.6: start 1571.195000, end 2750.873000
Metadata:
title : 00:26:11.195
Chapter #0.7: start 2750.873000, end 3125.539000
Metadata:
title : 00:45:50.873
Chapter #0.8: start 3125.539000, end 3403.400000
Metadata:
title : 00:52:05.539
Chapter #0.9: start 3403.400000, end 3650.272000
Metadata:
title : 00:56:43.400
Chapter #0.10: start 3650.272000, end 4001.414000
Metadata:
title : 01:00:50.272
Chapter #0.11: start 4001.414000, end 4551.881000
Metadata:
title : 01:06:41.414
Chapter #0.12: start 4551.881000, end 4825.988000
Metadata:
title : 01:15:51.881
Chapter #0.13: start 4825.988000, end 5041.036000
Metadata:
title : 01:20:25.988
Chapter #0.14: start 5041.036000, end 5246.116000
Metadata:
title : 01:24:01.036
Chapter #0.15: start 5246.116000, end 6286.280000
Metadata:
title : 01:27:26.116
Chapter #0.16: start 6286.280000, end 6544.830000
Metadata:
title : 01:44:46.280
Chapter #0.17: start 6544.830000, end 6926.128000
Metadata:
title : 01:49:04.830
Chapter #0.18: start 6926.128000, end 6926.128000
Metadata:
title : 01:55:26.128
Stream #0.0: Video: h264 (High), yuv420p, 1280x720 [PAR 1:1 DAR 16:9], 23.98 fps, 23.98 tbr, 1k tbn, 47.95 tbc (default)
Stream #0.1: Audio: ac3, 48000 Hz, 5.1, s16, 640 kb/s (default)
At least one output file must be specified


---> DB Level Info: 40

t1b1m
05-05-2011, 02:54 AM
Maybe PROBLEM SOLVED after 3 days of work !
For a freeware software is ok, but for a 20 euros sofware is not OK
I really considering to buy this software, now i'm not sure :(

manually edited the SamsungLA.prf file
deleted
"<audio>
<format id="dca" encode="0">
</format>
</audio>"
now seems to be okay.
with Samsung C profile selected

Now testing for 2 weeks !

Paul
05-05-2011, 08:40 AM
I'm glad you worked it out - we do provide a lot of support, but with the multitude of devices and formats out there, it's not always easy to pin-point issues. We always get there in the end though (in most cases) :)