PDA

View Full Version : Mezzmo Help Needed Studder Studder Studder



tkpro
05-19-2011, 08:19 AM
Ok Im still trying Mezzmo with somewhat success

Mezzmo running on Linksys WRT54GS Dell Poweredge

400SC
Pentium 4 2.80Ghz 2gb of Ram WinXP cat6 wired
TVs - (2x) Samsung LN37D550 (2 kids)
Samsung LN46D610

Using Samsung Profile D on each
Now the 46" plays everything beautifuly - Im very
happy
However the 2 37" TVs each seem to studder from

time to time with the same file that the 46 plays

great
So I excluded computer or network problems, also
some files that will not play on 37 do in fact play
on the 46. Im hoping this problem can be fixed with

a new profile for the 37's

Please Help

Paul
05-19-2011, 09:03 AM
Can you please post FFmpeg information on one of the files that doesn't play on the D550 (in Mezzmo right-click on the file and use the "Get FFmpeg Information" command).

Perhaps because it's a different series TV, a different profile (such as "Samsung C" or "Samsung BDP" will be better suited for the D550s - give those profiles a try and see if they help.

tkpro
05-19-2011, 09:47 AM
Dennis -

I tryed a different profile such as "Samsung C" or "Samsung BDP same results-


FFmpeg version git-N-28463-gc5dcb3d, Copyright (c) 2000-2011 the FFmpeg developers
built on Apr 20 2011 10:16:52 with gcc 4.4.2
configuration: --enable-memalign-hack --arch=x86 --target-os=mingw32 --cross-prefix=i686-mingw32- --enable-static --disable-shared --enable-zlib --disable-ffprobe --disable-ffplay --prefix=/media/windows/ffmpeg --enable-libmp3lame --enable-libx264 --enable-gpl --extra-libs='-lx264 -lpthread' --enable-runtime-cpudetect --pkg-config=pkg-config
libavutil 50. 40. 1 / 50. 40. 1
libavcodec 52.120. 0 / 52.120. 0
libavformat 52.108. 0 / 52.108. 0
libavdevice 52. 4. 0 / 52. 4. 0
libavfilter 1. 79. 1 / 1. 79. 1
libswscale 0. 13. 0 / 0. 13. 0
[matroska,webm @ 017f5f40] Estimating duration from bitrate, this may be inaccurate

Seems stream 0 codec frame rate differs from container frame rate: 47.95 (20000000/417083) -> 23.98 (24000/1001)
Input #0, matroska,webm, from 'F:\BlueRay2011\Hairspray.2007.1080p.BluRay.x264-SUNSPOT\Hairspray.2007.1080p.BluRay.x264-SUNSPOT.mkv':
Duration: 01:56:06.99, start: 0.000000, bitrate: 1536 kb/s
Stream #0.0: Video: h264 (High), yuv420p, 1920x816, PAR 1:1 DAR 40:17, 23.98 fps, 23.98 tbr, 1k tbn, 47.95 tbc (default)
Stream #0.1: Audio: dca (DTS), 48000 Hz, 5.1, s16, 1536 kb/s (default)
At least one output file must be specified


---> DB Level Info: 41

Paul
05-19-2011, 10:34 AM
That file should pass through natively using mostl Samsung device profiles, so then I'd guess that the TV cannot play it.

Try using "Samsung B" - that'll get that file transcoded and see if that works.

tkpro
05-20-2011, 09:11 AM
Dennis -
I tried using Samsung B profile and I guess it transcodes the file on the fly, I think ( I could always use some education since this is all new to me) but it seems to have fixed the st-udder problem but Ive lost the ability to skip forward / reverse. Is there any way to combine these 2 for a hybrid profile so I can have the best from both

Thanks

Paul
05-20-2011, 09:15 AM
It could be that the TV disables skipping while transcoding is taking place. We don't have a D-series TV here to test, but I'll see if we can arrange one.

When you play that file for the second time, does it allow skipping (once transcoding is finished) or it doesn't let you skip at all?

tkpro
05-20-2011, 10:28 AM
Yes it does allow me to advance/reverse not as well as the D series profile but I guess it will do also resume seems to work too. So does that mean any file that skips will need to be transcoded, Can either TV use that transcoded file ( since I have 2 )

Paul
05-20-2011, 10:35 AM
Yes, all files that do not play properly need to be transcoded. One way to check those files is to use Samsung's PC Share Manager and see if they play or not using that.

If you set both of your TVs to use the same device profile, then transcoded file will be used by both (won't need to be transcoded for the second one).