PDA

View Full Version : MP4 files unable to Fast Forward or Pause



Josip
10-14-2010, 09:22 AM
Unable to Fast Forward or Pause MP4 movie files in Mezzmo.

The functionality works on other DLNA software such as Serviio & Samsung PC Share Manage.

I don't have any issues with Fast Forwarding & Pausing MKV files.

Is this a bug or is Mezzmo missing this functionality for the moment?

I have a Samsung PS58C7000 (Firmware: 2002.0)

Paul
10-14-2010, 09:25 AM
Are you using Mezzmo v2.1.11 or a previous one? Also, which device profile is selected, "Samsung C"?

Can you please also send FFmpeg information on one of those MP4 files (in Mezzmo right-click on the file and use the "Get FFmpeg Information" command) to support (at) conceiva (dot) com and we'll try to replicate this here.

Josip
10-14-2010, 09:36 AM
I am using Mezzmo v2.1.11 with the Samsung C profile that was auto detected.

I will email the FFmpeg information for one of the MP4 when i get home.

Thanks for the quick reply. :)

Josip
10-14-2010, 04:20 PM
Below is the FFmpeg information from one of the MP4 files that doesn't FF/FR or Pause.


FFmpeg version SVN-r25446, Copyright (c) 2000-2010 the FFmpeg developers
built on Oct 12 2010 10:38:21 with gcc 4.4.2
configuration: --enable-memalign-hack --arch=x86 --target-os=mingw32 --cross-prefix=i686-mingw32- --enable-static --disable-shared --enable-zlib --disable-ffprobe --disable-ffplay --prefix=/media/windows-share/ffmpeg --extra-cflags=-U__STRICT_ANSI__ --enable-libmp3lame --enable-libx264 --enable-gpl --extra-libs='-lx264 -lpthread' --enable-runtime-cpudetect
libavutil 50.32. 3 / 50.32. 3
libavcore 0. 9. 1 / 0. 9. 1
libavcodec 52.92. 0 / 52.92. 0
libavformat 52.81. 0 / 52.81. 0
libavdevice 52. 2. 2 / 52. 2. 2
libavfilter 1.50. 1 / 1.50. 1
libswscale 0.12. 0 / 0.12. 0

Seems stream 0 codec frame rate differs from container frame rate: 47.95 (66893/1395) -> 23.98 (66893/2790)
Input #0, mov,mp4,m4a,3gp,3g2,mj2, from 'F:\Videos\Movies\HD\720P\Cloudy With A Chance Of Meatballs (2009)\Cloudy With A Chance Of Meatballs (2009)_720p.AAC.mp4':
Metadata:
major_brand : isom
minor_version : 1
compatible_brands: isom
Duration: 01:29:53.47, start: 0.000000, bitrate: 2318 kb/s
Stream #0.0(und): Video: h264, yuv420p, 1280x544 [PAR 1:1 DAR 40:17], 2002 kb/s, 23.98 fps, 23.98 tbr, 66893 tbn, 47.95 tbc
Stream #0.1(und): Audio: aac, 48000 Hz, 5.1, s16, 312 kb/s
At least one output file must be specified


---> DB Level Info: 41

Paul
10-14-2010, 04:29 PM
Thanks. I think I know what the problem is - please send a message to support (at) conceiva (dot) com and I'll send you an updated device profile to try.

Josip
10-15-2010, 02:16 PM
I did a quick test with the patch/profile update and FF/FR & Pause works on MP4 files. I will do some thorough testist this arvo and I will tell you how I go.
Will the next update incorperate the fixes? When will the new update come out?

Thanks

Paul
10-15-2010, 02:21 PM
Yes, the next update will include these fixes, but I'm not sure at this point when it'll be released. Hopefully not too far away though :)

Josip
10-19-2010, 02:39 PM
Thanks for the patch. I am no longer having any problems with any of my MP4 files Pausing/FF/FR :)