Results 1 to 7 of 7

Thread: Mezzmo Android 2.0.1 FireTV won't fast foward or rewind

  1. #1
    Join Date
    Feb 2016
    Posts
    3

    Default Mezzmo Android 2.0.1 FireTV won't fast foward or rewind

    Hello,
    My Amazon FireTV appears to have updated the Mezzmo app to 2.0.1 within the last couple days. I now don't appear to be able to fast forward or rewind in a video. My app profile for this device is Conceiva Mezzmo (Android). Nothing has changed other than the update. I was able to fast forward and rewind with no issues previously.
    Is there something I need to change?

    Thank you.

  2. #2
    Join Date
    Sep 2009
    Posts
    2,168

    Default

    Hi,
    the Mezzmo Android app has changed from using ijkPlayer to libVLC as the internal video player in the app. Can you please tell us what the file format is that you are playing where fast forward is not available? To see this you can right-click on the file in Mezzmo and select 'Get FFmpeg Information...'

    Mezzmo Android: Install it on your tablet, smartphone, Android TV or Amazon Fire to browse and stream files from your Mezzmo library to all your devices. Full details at http://www.conceiva.com/products/mez...mo_android.asp
    Mezzmo for Kodi Add-on: Install it into Kodi to stream files from your Mezzmo library directly in Kodi. Full details at http://www.mezzmo.com/wiki/doku.php?...odi_user_guide
    Mezzmo for Roku App: Install it onto your Roku to stream files from your Mezzmo library. Full details at http://www.mezzmo.com/wiki/doku.php?...oku_user_guide
    Wiki: User Guides & Reference Manual at http://www.mezzmo.com/wiki
    Facebook: http://www.facebook.com/Mezzmo.DLNA.Server
    Twitter: https://twitter.com/conceiva_mezzmo
    Web: http://www.mezzmo.com

  3. #3
    Join Date
    Mar 2011
    Posts
    381

    Default

    Quote Originally Posted by Peter View Post
    Hi,
    the Mezzmo Android app has changed from using ijkPlayer to libVLC as the internal video player in the app. Can you please tell us what the file format is that you are playing where fast forward is not available? To see this you can right-click on the file in Mezzmo and select 'Get FFmpeg Information...'
    I am having the same issue. No FF/Rew. I can only Pause if I physically hold down the Pause/Play button. The file resumes as soon as I let go of the button.

    The audio is completely out of sync with all files as well.

    I love that subtitles aren't displayed by default anymore!!!!!

    Godzilla: King of the Monsters
    ffmpeg version N-78742-gf477849 Copyright (c) 2000-2017 the FFmpeg developers
    built with gcc 4.9.2 (GCC)
    configuration: --arch=x86_64 --target-os=mingw32 --cross-prefix=x86_64-w64-mingw32- --enable-static --disable-shared --enable-zlib --disable-postproc --prefix=/home/peter/ffmpeg/build/gpl64 --enable-libmp3lame --enable-libx264 --enable-gpl --extra-libs='-lx264 -lpthread -lstdc++' --enable-runtime-cpudetect --extra-cflags=-I/home/peter/cc32/include --extra-ldflags=-L/home/peter/cc64/lib --pkg-config=pkg-config --pkg-config-flags=--static --disable-w32threads --enable-libvpx --enable-libvorbis --enable-libtheora --enable-libx265 --enable-cuda --enable-cuvid --enable-dxva2 --enable-libmfx --enable-nvenc --enable-gnutls --extra-libs='-lz -lnettle -lhogweed -lgmp -lidn -lws2_32 -lcrypt32'
    libavutil 55. 74.100 / 55. 74.100
    libavcodec 57.103.100 / 57.103.100
    libavformat 57. 76.100 / 57. 76.100
    libavdevice 57. 7.100 / 57. 7.100
    libavfilter 6.100.100 / 6.100.100
    libswscale 4. 7.102 / 4. 7.102
    libswresample 2. 8.100 / 2. 8.100
    Input #0, matroska,webm, from 'V:\ServerFolders\Brettflix\Movies\D-G\Godzilla - King of the Monsters (2019)\Godzilla - King of the Monsters (2019).mkv':
    Metadata:
    title : Godzilla: King of the Monsters
    encoder : libebml v1.3.6 + libmatroska v1.4.9
    creation_time : 2019-08-16T09:46:27.000000Z
    Duration: 02:11:44.24, start: 0.000000, bitrate: 25307 kb/s
    Chapter #0:0: start 0.000000, end 652.000000
    Metadata:
    title : 1
    Chapter #0:1: start 652.000000, end 1084.000000
    Metadata:
    title : 2
    Chapter #0:2: start 1084.000000, end 1824.000000
    Metadata:
    title : 3
    Chapter #0:3: start 1824.000000, end 2714.000000
    Metadata:
    title : 4
    Chapter #0:4: start 2714.000000, end 3246.000000
    Metadata:
    title : 5
    Chapter #0:5: start 3246.000000, end 3936.000000
    Metadata:
    title : 6
    Chapter #0:6: start 3936.000000, end 4166.000000
    Metadata:
    title : 7
    Chapter #0:7: start 4166.000000, end 4765.000000
    Metadata:
    title : 8
    Chapter #0:8: start 4765.000000, end 5399.000000
    Metadata:
    title : 9
    Chapter #0:9: start 5399.000000, end 5909.000000
    Metadata:
    title : 10
    Chapter #0:10: start 5909.000000, end 6591.000000
    Metadata:
    title : 11
    Chapter #0:11: start 6591.000000, end 7160.000000
    Metadata:
    title : 12
    Chapter #0:12: start 7160.000000, end 7904.244000
    Metadata:
    title : 13
    Stream #0:0: Video: hevc (Main 10), yuv420p10le(tv, bt709), 3840x2160 [SAR 1:1 DAR 16:9], 23.98 fps, 23.98 tbr, 1k tbn, 23.98 tbc (default)
    Metadata:
    title : HEVC/h265 1080p
    BPS-eng : 24665264
    DURATION-eng : 02:11:44.105000000
    NUMBER_OF_FRAMES-eng: 189511
    NUMBER_OF_BYTES-eng: 24369604841
    _STATISTICS_WRITING_APP-eng: mkvmerge v31.0.0 ('Dolores In A Shoestand') 64-bit
    _STATISTICS_WRITING_DATE_UTC-eng: 2019-08-16 09:46:27
    _STATISTICS_TAGS-eng: BPS DURATION NUMBER_OF_FRAMES NUMBER_OF_BYTES
    Stream #0:1(eng): Audio: eac3, 48000 Hz, 5.1(side), fltp, 640 kb/s (default)
    Metadata:
    title : Main Feature: Dolby Digital+ (5.1 ch)
    BPS-eng : 640000
    DURATION-eng : 02:11:43.200000000
    NUMBER_OF_FRAMES-eng: 246975
    NUMBER_OF_BYTES-eng: 632256000
    _STATISTICS_WRITING_APP-eng: mkvmerge v31.0.0 ('Dolores In A Shoestand') 64-bit
    _STATISTICS_WRITING_DATE_UTC-eng: 2019-08-16 09:46:27
    _STATISTICS_TAGS-eng: BPS DURATION NUMBER_OF_FRAMES NUMBER_OF_BYTES
    Stream #0:2(eng): Subtitle: subrip
    Metadata:
    title : Main Feature
    BPS-eng : 42
    DURATION-eng : 02:10:45.000000000
    NUMBER_OF_FRAMES-eng: 1482
    NUMBER_OF_BYTES-eng: 41707
    _STATISTICS_WRITING_APP-eng: mkvmerge v31.0.0 ('Dolores In A Shoestand') 64-bit
    _STATISTICS_WRITING_DATE_UTC-eng: 2019-08-16 09:46:27
    _STATISTICS_TAGS-eng: BPS DURATION NUMBER_OF_FRAMES NUMBER_OF_BYTES
    Stream #0:3(eng): Subtitle: subrip
    Metadata:
    title : Main Feature: SDH
    BPS-eng : 51
    DURATION-eng : 02:11:19.000000000
    NUMBER_OF_FRAMES-eng: 1857
    NUMBER_OF_BYTES-eng: 50875
    _STATISTICS_WRITING_APP-eng: mkvmerge v31.0.0 ('Dolores In A Shoestand') 64-bit
    _STATISTICS_WRITING_DATE_UTC-eng: 2019-08-16 09:46:27
    _STATISTICS_TAGS-eng: BPS DURATION NUMBER_OF_FRAMES NUMBER_OF_BYTES
    Stream #0:4: Video: mjpeg, yuvj420p(pc, bt470bg/unknown/unknown), 1920x1080 [SAR 1:1 DAR 16:9], 90k tbr, 90k tbn, 90k tbc
    Metadata:
    filename : Godzilla - King of the Monsters (2019)-fanart.jpg
    mimetype : image/jpeg
    At least one output file must be specified

    <MEZZMO>: Child process ended with code: 109, ExitCode=1


    ---> DB Level Info: 40, 2
    ---> Frame rate: 23.98
    ---> Aspect ratio: 12:5 PAR=1:1
    ---> Duration: 02:11:44


    8 Mile
    ffmpeg version N-78742-gf477849 Copyright (c) 2000-2017 the FFmpeg developers
    built with gcc 4.9.2 (GCC)
    configuration: --arch=x86_64 --target-os=mingw32 --cross-prefix=x86_64-w64-mingw32- --enable-static --disable-shared --enable-zlib --disable-postproc --prefix=/home/peter/ffmpeg/build/gpl64 --enable-libmp3lame --enable-libx264 --enable-gpl --extra-libs='-lx264 -lpthread -lstdc++' --enable-runtime-cpudetect --extra-cflags=-I/home/peter/cc32/include --extra-ldflags=-L/home/peter/cc64/lib --pkg-config=pkg-config --pkg-config-flags=--static --disable-w32threads --enable-libvpx --enable-libvorbis --enable-libtheora --enable-libx265 --enable-cuda --enable-cuvid --enable-dxva2 --enable-libmfx --enable-nvenc --enable-gnutls --extra-libs='-lz -lnettle -lhogweed -lgmp -lidn -lws2_32 -lcrypt32'
    libavutil 55. 74.100 / 55. 74.100
    libavcodec 57.103.100 / 57.103.100
    libavformat 57. 76.100 / 57. 76.100
    libavdevice 57. 7.100 / 57. 7.100
    libavfilter 6.100.100 / 6.100.100
    libswscale 4. 7.102 / 4. 7.102
    libswresample 2. 8.100 / 2. 8.100
    Input #0, matroska,webm, from 'V:\ServerFolders\Brettflix\Movies\0-9\8 Mile (2002)\8 Mile (2002).mkv':
    Metadata:
    title : 8 Mile
    encoder : libebml v1.3.0 + libmatroska v1.4.1
    creation_time : 2014-12-24T19:10:49.000000Z
    Duration: 01:50:27.83, start: 0.000000, bitrate: 3481 kb/s
    Chapter #0:0: start 0.000000, end 191.941733
    Metadata:
    title : Preparing for Battle (Main Titles)
    Chapter #0:1: start 191.941733, end 607.898956
    Metadata:
    title : The Shelter
    Chapter #0:2: start 607.898956, end 891.724156
    Metadata:
    title : 8 Mile Road
    Chapter #0:3: start 891.724156, end 1191.356822
    Metadata:
    title : The Franchise
    Chapter #0:4: start 1191.356822, end 1411.034622
    Metadata:
    title : Sweet Home Alabama
    Chapter #0:5: start 1411.034622, end 1640.889244
    Metadata:
    title : Saturday Night in the D
    Chapter #0:6: start 1640.889244, end 2080.870444
    Metadata:
    title : The Chin Tiki
    Chapter #0:7: start 2080.870444, end 2339.795778
    Metadata:
    title : Alex
    Chapter #0:8: start 2339.795778, end 2809.389911
    Metadata:
    title : Burn It Down
    Chapter #0:9: start 2809.389911, end 3174.337822
    Metadata:
    title : I Got Your Back
    Chapter #0:10: start 3174.337822, end 3707.870822
    Metadata:
    title : The Lunch Truck
    Chapter #0:11: start 3707.870822, end 3962.416778
    Metadata:
    title : This Ain't My Home
    Chapter #0:12: start 3962.416778, end 4304.133156
    Metadata:
    title : Eviction Situation
    Chapter #0:13: start 4304.133156, end 4427.965200
    Metadata:
    title : Domestic Disturbance
    Chapter #0:14: start 4427.965200, end 4604.933667
    Metadata:
    title : Wjlb (313 Baby, Love)
    Chapter #0:15: start 4604.933667, end 5070.732333
    Metadata:
    title : Papa Doc Payback
    Chapter #0:16: start 5070.732333, end 5276.437822
    Metadata:
    title : The Cripple Convention
    Chapter #0:17: start 5276.437822, end 5899.143244
    Metadata:
    title : Rabbit Finds His Voice
    Chapter #0:18: start 5899.143244, end 6210.537667
    Metadata:
    title : Final Face-Off
    Chapter #0:19: start 6210.537667, end 6329.114444
    Metadata:
    title : Where We Goin'
    Chapter #0:20: start 6329.114444, end 6627.829000
    Metadata:
    title : Loose Yourself (End Titles)
    Stream #0:0: Video: h264 (High), yuv420p(progressive), 1920x816 [SAR 1:1 DAR 40:17], 23.98 fps, 23.98 tbr, 1k tbn, 47.95 tbc (default)
    Metadata:
    BPS : 2500106
    BPS-eng : 2500106
    DURATION : 01:50:27.711000000
    DURATION-eng : 01:50:27.711000000
    NUMBER_OF_FRAMES: 158906
    NUMBER_OF_FRAMES-eng: 158906
    NUMBER_OF_BYTES : 2071247609
    NUMBER_OF_BYTES-eng: 2071247609
    _STATISTICS_WRITING_APP: mkvmerge v7.2.0 ('On Every Street') 64bit built on Sep 13 2014 15:52:10
    _STATISTICS_WRITING_APP-eng: mkvmerge v7.2.0 ('On Every Street') 64bit built on Sep 13 2014 15:52:10
    _STATISTICS_WRITING_DATE_UTC: 2014-12-24 19:10:49
    _STATISTICS_WRITING_DATE_UTC-eng: 2014-12-24 19:10:49
    _STATISTICS_TAGS: BPS DURATION NUMBER_OF_FRAMES NUMBER_OF_BYTES
    _STATISTICS_TAGS-eng: BPS DURATION NUMBER_OF_FRAMES NUMBER_OF_BYTES
    Stream #0:1(eng): Audio: aac (LC), 48000 Hz, 5.1, fltp (default)
    Metadata:
    title : AAC 5.1
    BPS : 223998
    BPS-eng : 223998
    DURATION : 01:50:27.829000000
    DURATION-eng : 01:50:27.829000000
    NUMBER_OF_FRAMES: 310677
    NUMBER_OF_FRAMES-eng: 310677
    NUMBER_OF_BYTES : 185577729
    NUMBER_OF_BYTES-eng: 185577729
    _STATISTICS_WRITING_APP: mkvmerge v7.2.0 ('On Every Street') 64bit built on Sep 13 2014 15:52:10
    _STATISTICS_WRITING_APP-eng: mkvmerge v7.2.0 ('On Every Street') 64bit built on Sep 13 2014 15:52:10
    _STATISTICS_WRITING_DATE_UTC: 2014-12-24 19:10:49
    _STATISTICS_WRITING_DATE_UTC-eng: 2014-12-24 19:10:49
    _STATISTICS_TAGS: BPS DURATION NUMBER_OF_FRAMES NUMBER_OF_BYTES
    _STATISTICS_TAGS-eng: BPS DURATION NUMBER_OF_FRAMES NUMBER_OF_BYTES
    Stream #0:2(eng): Audio: dts (DTS), 48000 Hz, 5.1(side), fltp, 768 kb/s
    Metadata:
    title : DTS 5.1
    BPS : 754500
    BPS-eng : 754500
    DURATION : 01:50:26.933000000
    DURATION-eng : 01:50:26.933000000
    NUMBER_OF_FRAMES: 621275
    NUMBER_OF_FRAMES-eng: 621275
    NUMBER_OF_BYTES : 625002650
    NUMBER_OF_BYTES-eng: 625002650
    _STATISTICS_WRITING_APP: mkvmerge v7.2.0 ('On Every Street') 64bit built on Sep 13 2014 15:52:10
    _STATISTICS_WRITING_APP-eng: mkvmerge v7.2.0 ('On Every Street') 64bit built on Sep 13 2014 15:52:10
    _STATISTICS_WRITING_DATE_UTC: 2014-12-24 19:10:49
    _STATISTICS_WRITING_DATE_UTC-eng: 2014-12-24 19:10:49
    _STATISTICS_TAGS: BPS DURATION NUMBER_OF_FRAMES NUMBER_OF_BYTES
    _STATISTICS_TAGS-eng: BPS DURATION NUMBER_OF_FRAMES NUMBER_OF_BYTES
    Stream #0:3(eng): Subtitle: subrip
    Metadata:
    title : English
    BPS : 79
    BPS-eng : 79
    DURATION : 01:48:52.741000000
    DURATION-eng : 01:48:52.741000000
    NUMBER_OF_FRAMES: 1523
    NUMBER_OF_FRAMES-eng: 1523
    NUMBER_OF_BYTES : 65051
    NUMBER_OF_BYTES-eng: 65051
    _STATISTICS_WRITING_APP: mkvmerge v7.2.0 ('On Every Street') 64bit built on Sep 13 2014 15:52:10
    _STATISTICS_WRITING_APP-eng: mkvmerge v7.2.0 ('On Every Street') 64bit built on Sep 13 2014 15:52:10
    _STATISTICS_WRITING_DATE_UTC: 2014-12-24 19:10:49
    _STATISTICS_WRITING_DATE_UTC-eng: 2014-12-24 19:10:49
    _STATISTICS_TAGS: BPS DURATION NUMBER_OF_FRAMES NUMBER_OF_BYTES
    _STATISTICS_TAGS-eng: BPS DURATION NUMBER_OF_FRAMES NUMBER_OF_BYTES
    At least one output file must be specified

    <MEZZMO>: Child process ended with code: 109, ExitCode=1


    ---> DB Level Info: 41, 100
    ---> Frame rate: 23.98
    ---> Aspect ratio: 40:17 PAR=1:1
    ---> Duration: 01:50:27


    Jexi
    ffmpeg version N-78742-gf477849 Copyright (c) 2000-2017 the FFmpeg developers
    built with gcc 4.9.2 (GCC)
    configuration: --arch=x86_64 --target-os=mingw32 --cross-prefix=x86_64-w64-mingw32- --enable-static --disable-shared --enable-zlib --disable-postproc --prefix=/home/peter/ffmpeg/build/gpl64 --enable-libmp3lame --enable-libx264 --enable-gpl --extra-libs='-lx264 -lpthread -lstdc++' --enable-runtime-cpudetect --extra-cflags=-I/home/peter/cc32/include --extra-ldflags=-L/home/peter/cc64/lib --pkg-config=pkg-config --pkg-config-flags=--static --disable-w32threads --enable-libvpx --enable-libvorbis --enable-libtheora --enable-libx265 --enable-cuda --enable-cuvid --enable-dxva2 --enable-libmfx --enable-nvenc --enable-gnutls --extra-libs='-lz -lnettle -lhogweed -lgmp -lidn -lws2_32 -lcrypt32'
    libavutil 55. 74.100 / 55. 74.100
    libavcodec 57.103.100 / 57.103.100
    libavformat 57. 76.100 / 57. 76.100
    libavdevice 57. 7.100 / 57. 7.100
    libavfilter 6.100.100 / 6.100.100
    libswscale 4. 7.102 / 4. 7.102
    libswresample 2. 8.100 / 2. 8.100
    Input #0, matroska,webm, from 'V:\ServerFolders\Brettflix\Movies\H-K\Jexi (2019)\Jexi (2019).mkv':
    Metadata:
    title : Jexi
    encoder : libebml v1.3.9 + libmatroska v1.5.2
    creation_time : 2020-01-17T05:37:17.000000Z
    Duration: 01:24:23.17, start: 0.000000, bitrate: 4987 kb/s
    Stream #0:0(eng): Video: h264 (High), yuv420p(tv, bt709, progressive), 1920x1080 [SAR 1:1 DAR 16:9], 23.98 fps, 23.98 tbr, 1k tbn, 47.95 tbc (default)
    Metadata:
    title : AVC/h264 1080p
    BPS-eng : 4599857
    DURATION-eng : 01:24:23.100000000
    NUMBER_OF_FRAMES-eng: 121393
    NUMBER_OF_BYTES-eng: 2911192406
    _STATISTICS_WRITING_APP-eng: mkvmerge v41.0.0 ('Smarra') 64-bit
    _STATISTICS_WRITING_DATE_UTC-eng: 2020-01-17 05:37:17
    _STATISTICS_TAGS-eng: BPS DURATION NUMBER_OF_FRAMES NUMBER_OF_BYTES
    Stream #0:1(eng): Audio: ac3, 48000 Hz, 5.1(side), fltp, 384 kb/s (default)
    Metadata:
    title : Main Feature: Dolby Digital (5.1 ch)
    BPS-eng : 384000
    DURATION-eng : 01:24:23.168000000
    NUMBER_OF_FRAMES-eng: 158224
    NUMBER_OF_BYTES-eng: 243032064
    _STATISTICS_WRITING_APP-eng: mkvmerge v41.0.0 ('Smarra') 64-bit
    _STATISTICS_WRITING_DATE_UTC-eng: 2020-01-17 05:37:17
    _STATISTICS_TAGS-eng: BPS DURATION NUMBER_OF_FRAMES NUMBER_OF_BYTES
    Stream #0:2(eng): Subtitle: subrip
    Metadata:
    title : Main Feature
    BPS-eng : 94
    DURATION-eng : 01:19:04.776000000
    NUMBER_OF_FRAMES-eng: 1800
    NUMBER_OF_BYTES-eng: 56344
    _STATISTICS_WRITING_APP-eng: mkvmerge v41.0.0 ('Smarra') 64-bit
    _STATISTICS_WRITING_DATE_UTC-eng: 2020-01-17 05:37:17
    _STATISTICS_TAGS-eng: BPS DURATION NUMBER_OF_FRAMES NUMBER_OF_BYTES
    Stream #0:3: Video: mjpeg, yuvj420p(pc, bt470bg/unknown/unknown), 2000x3000 [SAR 1:1 DAR 2:3], 90k tbr, 90k tbn, 90k tbc
    Metadata:
    filename : Jexi (2019).jpg
    mimetype : image/jpeg
    At least one output file must be specified

    <MEZZMO>: Child process ended with code: 109, ExitCode=1


    ---> DB Level Info: 40, 100
    ---> Frame rate: 23.98
    ---> Aspect ratio: 16:9 PAR=1:1
    ---> Duration: 01:24:23


    The Predator (Horrible film by the way)
    ffmpeg version N-78742-gf477849 Copyright (c) 2000-2017 the FFmpeg developers
    built with gcc 4.9.2 (GCC)
    configuration: --arch=x86_64 --target-os=mingw32 --cross-prefix=x86_64-w64-mingw32- --enable-static --disable-shared --enable-zlib --disable-postproc --prefix=/home/peter/ffmpeg/build/gpl64 --enable-libmp3lame --enable-libx264 --enable-gpl --extra-libs='-lx264 -lpthread -lstdc++' --enable-runtime-cpudetect --extra-cflags=-I/home/peter/cc32/include --extra-ldflags=-L/home/peter/cc64/lib --pkg-config=pkg-config --pkg-config-flags=--static --disable-w32threads --enable-libvpx --enable-libvorbis --enable-libtheora --enable-libx265 --enable-cuda --enable-cuvid --enable-dxva2 --enable-libmfx --enable-nvenc --enable-gnutls --extra-libs='-lz -lnettle -lhogweed -lgmp -lidn -lws2_32 -lcrypt32'
    libavutil 55. 74.100 / 55. 74.100
    libavcodec 57.103.100 / 57.103.100
    libavformat 57. 76.100 / 57. 76.100
    libavdevice 57. 7.100 / 57. 7.100
    libavfilter 6.100.100 / 6.100.100
    libswscale 4. 7.102 / 4. 7.102
    libswresample 2. 8.100 / 2. 8.100
    Input #0, matroska,webm, from 'V:\ServerFolders\Brettflix\Movies\T-V\The Predator (2018)\The Predator (2018).mkv':
    Metadata:
    title : The Predator
    encoder : libebml v1.3.6 + libmatroska v1.4.9
    creation_time : 2018-11-28T04:24:38.000000Z
    Duration: 01:47:36.66, start: 0.000000, bitrate: 4941 kb/s
    Chapter #0:0: start 0.000000, end 121.705000
    Metadata:
    title : Chapter 01
    Chapter #0:1: start 121.705000, end 513.930000
    Metadata:
    title : Chapter 02
    Chapter #0:2: start 513.930000, end 586.334000
    Metadata:
    title : Chapter 03
    Chapter #0:3: start 586.334000, end 828.659000
    Metadata:
    title : Chapter 04
    Chapter #0:4: start 828.659000, end 970.174000
    Metadata:
    title : Chapter 05
    Chapter #0:5: start 970.174000, end 1057.427000
    Metadata:
    title : Chapter 06
    Chapter #0:6: start 1057.427000, end 1222.466000
    Metadata:
    title : Chapter 07
    Chapter #0:7: start 1222.466000, end 1502.954000
    Metadata:
    title : Chapter 08
    Chapter #0:8: start 1502.954000, end 1657.273000
    Metadata:
    title : Chapter 09
    Chapter #0:9: start 1657.273000, end 1871.070000
    Metadata:
    title : Chapter 10
    Chapter #0:10: start 1871.070000, end 2184.341000
    Metadata:
    title : Chapter 11
    Chapter #0:11: start 2184.341000, end 2281.645000
    Metadata:
    title : Chapter 12
    Chapter #0:12: start 2281.645000, end 2383.538000
    Metadata:
    title : Chapter 13
    Chapter #0:13: start 2383.538000, end 2675.704000
    Metadata:
    title : Chapter 14
    Chapter #0:14: start 2675.704000, end 2956.901000
    Metadata:
    title : Chapter 15
    Chapter #0:15: start 2956.901000, end 3199.602000
    Metadata:
    title : Chapter 16
    Chapter #0:16: start 3199.602000, end 3515.500000
    Metadata:
    title : Chapter 17
    Chapter #0:17: start 3515.500000, end 3599.500000
    Metadata:
    title : Chapter 18
    Chapter #0:18: start 3599.500000, end 3797.280000
    Metadata:
    title : Chapter 19
    Chapter #0:19: start 3797.280000, end 3997.812000
    Metadata:
    title : Chapter 20
    Chapter #0:20: start 3997.812000, end 4192.006000
    Metadata:
    title : Chapter 21
    Chapter #0:21: start 4192.006000, end 4347.619000
    Metadata:
    title : Chapter 22
    Chapter #0:22: start 4347.619000, end 4556.619000
    Metadata:
    title : Chapter 23
    Chapter #0:23: start 4556.619000, end 4733.670000
    Metadata:
    title : Chapter 24
    Chapter #0:24: start 4733.670000, end 4885.613000
    Metadata:
    title : Chapter 25
    Chapter #0:25: start 4885.613000, end 4989.924000
    Metadata:
    title : Chapter 26
    Chapter #0:26: start 4989.924000, end 5229.787000
    Metadata:
    title : Chapter 27
    Chapter #0:27: start 5229.787000, end 5456.221000
    Metadata:
    title : Chapter 28
    Chapter #0:28: start 5456.221000, end 5535.799000
    Metadata:
    title : Chapter 29
    Chapter #0:29: start 5535.799000, end 5709.389000
    Metadata:
    title : Chapter 30
    Chapter #0:30: start 5709.389000, end 6001.180000
    Metadata:
    title : Chapter 31
    Chapter #0:31: start 6001.180000, end 6456.655000
    Metadata:
    title : Chapter 32
    Stream #0:0: Video: h264 (High), yuv420p(tv, bt709, progressive), 1920x802 [SAR 1:1 DAR 960:401], 23.98 fps, 23.98 tbr, 1k tbn, 2k tbc (default)
    Metadata:
    title : AVC/h264 1080p
    BPS-eng : 4556460
    DURATION-eng : 01:47:36.612000000
    NUMBER_OF_FRAMES-eng: 154805
    NUMBER_OF_BYTES-eng: 3677412518
    _STATISTICS_WRITING_APP-eng: mkvmerge v28.2.0 ('The Awakening') 64-bit
    _STATISTICS_WRITING_DATE_UTC-eng: 2018-11-28 04:24:38
    _STATISTICS_TAGS-eng: BPS DURATION NUMBER_OF_FRAMES NUMBER_OF_BYTES
    Stream #0:1(eng): Audio: ac3, 48000 Hz, 5.1(side), fltp, 384 kb/s (default)
    Metadata:
    title : Main Feature: Dolby Digital (5.1 ch)
    BPS-eng : 384000
    DURATION-eng : 01:46:57.696000000
    NUMBER_OF_FRAMES-eng: 200553
    NUMBER_OF_BYTES-eng: 308049408
    _STATISTICS_WRITING_APP-eng: mkvmerge v28.2.0 ('The Awakening') 64-bit
    _STATISTICS_WRITING_DATE_UTC-eng: 2018-11-28 04:24:38
    _STATISTICS_TAGS-eng: BPS DURATION NUMBER_OF_FRAMES NUMBER_OF_BYTES
    Stream #0:2(eng): Subtitle: subrip
    Metadata:
    title : Main Feature
    BPS-eng : 49
    DURATION-eng : 01:38:47.601000000
    NUMBER_OF_FRAMES-eng: 1365
    NUMBER_OF_BYTES-eng: 36448
    _STATISTICS_WRITING_APP-eng: mkvmerge v28.2.0 ('The Awakening') 64-bit
    _STATISTICS_WRITING_DATE_UTC-eng: 2018-11-28 04:24:38
    _STATISTICS_TAGS-eng: BPS DURATION NUMBER_OF_FRAMES NUMBER_OF_BYTES
    Stream #0:3(eng): Subtitle: subrip
    Metadata:
    title : Main Feature: SDH
    BPS-eng : 59
    DURATION-eng : 01:38:47.601000000
    NUMBER_OF_FRAMES-eng: 1706
    NUMBER_OF_BYTES-eng: 43953
    _STATISTICS_WRITING_APP-eng: mkvmerge v28.2.0 ('The Awakening') 64-bit
    _STATISTICS_WRITING_DATE_UTC-eng: 2018-11-28 04:24:38
    _STATISTICS_TAGS-eng: BPS DURATION NUMBER_OF_FRAMES NUMBER_OF_BYTES
    Stream #0:4: Video: mjpeg, yuvj420p(pc, bt470bg/unknown/unknown), 2000x3000 [SAR 1:1 DAR 2:3], 90k tbr, 90k tbn, 90k tbc
    Metadata:
    filename : The Predator (2018).jpg
    mimetype : image/jpeg
    At least one output file must be specified

    <MEZZMO>: Child process ended with code: 109, ExitCode=1


    ---> DB Level Info: 40, 100
    ---> Frame rate: 23.98
    ---> Aspect ratio: 960:401 PAR=1:1
    ---> Duration: 01:47:36

  4. #4
    Join Date
    Sep 2009
    Posts
    2,168

    Default

    I have reproduced the issue with the play/pause button on the remote, you can use the center button on the remote that is used to select an action or file as a work around to play/pause using the on screen button as a workaround until we fix this. We could not reproduce the audio sync issue even with hardware encoding turned off in the settings. We also tried with passthrough turned on and off but the audio was in sync. One of the mkv files we tried would not seek but others we tried were able to fast forward and rewind. Please check to make sure that the file is not being transcoded as this will prevent fast forward.

    Mezzmo Android: Install it on your tablet, smartphone, Android TV or Amazon Fire to browse and stream files from your Mezzmo library to all your devices. Full details at http://www.conceiva.com/products/mez...mo_android.asp
    Mezzmo for Kodi Add-on: Install it into Kodi to stream files from your Mezzmo library directly in Kodi. Full details at http://www.mezzmo.com/wiki/doku.php?...odi_user_guide
    Mezzmo for Roku App: Install it onto your Roku to stream files from your Mezzmo library. Full details at http://www.mezzmo.com/wiki/doku.php?...oku_user_guide
    Wiki: User Guides & Reference Manual at http://www.mezzmo.com/wiki
    Facebook: http://www.facebook.com/Mezzmo.DLNA.Server
    Twitter: https://twitter.com/conceiva_mezzmo
    Web: http://www.mezzmo.com

  5. #5
    Join Date
    Feb 2016
    Posts
    3

    Default

    The Fast Foward / Rewind does not seem to work on any filetype. But here is an example:

    ffmpeg version N-78742-gf477849 Copyright (c) 2000-2017 the FFmpeg developers
    built with gcc 4.9.2 (GCC)
    configuration: --arch=x86_64 --target-os=mingw32 --cross-prefix=x86_64-w64-mingw32- --enable-static --disable-shared --enable-zlib --disable-postproc --prefix=/home/peter/ffmpeg/build/gpl64 --enable-libmp3lame --enable-libx264 --enable-gpl --extra-libs='-lx264 -lpthread -lstdc++' --enable-runtime-cpudetect --extra-cflags=-I/home/peter/cc32/include --extra-ldflags=-L/home/peter/cc64/lib --pkg-config=pkg-config --pkg-config-flags=--static --disable-w32threads --enable-libvpx --enable-libvorbis --enable-libtheora --enable-libx265 --enable-cuda --enable-cuvid --enable-dxva2 --enable-libmfx --enable-nvenc --enable-gnutls --extra-libs='-lz -lnettle -lhogweed -lgmp -lidn -lws2_32 -lcrypt32'
    libavutil 55. 74.100 / 55. 74.100
    libavcodec 57.103.100 / 57.103.100
    libavformat 57. 76.100 / 57. 76.100
    libavdevice 57. 7.100 / 57. 7.100
    libavfilter 6.100.100 / 6.100.100
    libswscale 4. 7.102 / 4. 7.102
    libswresample 2. 8.100 / 2. 8.100
    Input #0, mov,mp4,m4a,3gp,3g2,mj2, from 'C:\Users\Padraig\Downloads\___New\202001\20200125 \Bohemian Coffee Club Pumpkin Spice Cake.mp4':
    Metadata:
    major_brand : isom
    minor_version : 0
    compatible_brands: mp41avc1
    creation_time : 2017-10-05T16:48:46.000000Z
    playback_requirements: QuickTime 6.0 or greater
    playback_requirements-eng: QuickTime 6.0 or greater
    encoder : vlc 2.2.6 stream output
    encoder-eng : vlc 2.2.6 stream output
    Duration: 00:00:57.79, start: 0.000000, bitrate: 15393 kb/s
    Stream #0:0(eng): Audio: aac (LC) (mp4a / 0x6134706D), 44100 Hz, stereo, fltp, 256 kb/s (default)
    Metadata:
    creation_time : 2017-10-05T16:48:46.000000Z
    handler_name : SoundHandler
    Stream #0:1(eng): Video: h264 (High) (avc1 / 0x31637661), yuv420p, 1920x1080 [SAR 1:1 DAR 16:9], 15138 kb/s, 29.97 fps, 29.97 tbr, 1000k tbn, 59.94 tbc (default)
    Metadata:
    creation_time : 2017-10-05T16:48:46.000000Z
    handler_name : VideoHandler
    At least one output file must be specified

    <MEZZMO>: Child process ended with code: 109, ExitCode=1


    ---> DB Level Info: 41, 100
    ---> Frame rate: 29.97
    ---> Aspect ratio: 16:9 PAR=1:1
    ---> Duration: 00:00:57

  6. #6
    Join Date
    Sep 2009
    Posts
    2,168

    Default

    If you press the center button on the remote control then press up to put the focus on the seek bar then press the right button on the remote does this allow seeking in the file?

    Mezzmo Android: Install it on your tablet, smartphone, Android TV or Amazon Fire to browse and stream files from your Mezzmo library to all your devices. Full details at http://www.conceiva.com/products/mez...mo_android.asp
    Mezzmo for Kodi Add-on: Install it into Kodi to stream files from your Mezzmo library directly in Kodi. Full details at http://www.mezzmo.com/wiki/doku.php?...odi_user_guide
    Mezzmo for Roku App: Install it onto your Roku to stream files from your Mezzmo library. Full details at http://www.mezzmo.com/wiki/doku.php?...oku_user_guide
    Wiki: User Guides & Reference Manual at http://www.mezzmo.com/wiki
    Facebook: http://www.facebook.com/Mezzmo.DLNA.Server
    Twitter: https://twitter.com/conceiva_mezzmo
    Web: http://www.mezzmo.com

  7. #7
    Join Date
    Sep 2009
    Posts
    2,168

    Default

    We have reproduced the fast forward and rewind issue and also the audio sync problem. The audio sync problem only occurs when hardware decoding is enabled so it is best to disable this in settings. The same audio sync problem occurs when using the VLC video player app also. We will release an updated app for the fast forward and play/pause issue. For the audio sync problem we will disable hardware decoding by default on the Fire TV devices.

    Mezzmo Android: Install it on your tablet, smartphone, Android TV or Amazon Fire to browse and stream files from your Mezzmo library to all your devices. Full details at http://www.conceiva.com/products/mez...mo_android.asp
    Mezzmo for Kodi Add-on: Install it into Kodi to stream files from your Mezzmo library directly in Kodi. Full details at http://www.mezzmo.com/wiki/doku.php?...odi_user_guide
    Mezzmo for Roku App: Install it onto your Roku to stream files from your Mezzmo library. Full details at http://www.mezzmo.com/wiki/doku.php?...oku_user_guide
    Wiki: User Guides & Reference Manual at http://www.mezzmo.com/wiki
    Facebook: http://www.facebook.com/Mezzmo.DLNA.Server
    Twitter: https://twitter.com/conceiva_mezzmo
    Web: http://www.mezzmo.com

Similar Threads

  1. Mezzmo Media Player is jittery and glitchy on Amazon FireTV & FireTV Stick
    By smitbret in forum Mezzmo Questions and Support
    Replies: 31
    Last Post: 04-23-2018, 09:02 AM
  2. [HELP] Mezzmo Media Player is jittery and glitchy on Amazon FireTV & FireTV Stick
    By alisondmurray in forum Mezzmo Questions and Support
    Replies: 1
    Last Post: 04-10-2018, 01:01 AM
  3. Fast foward no longer works
    By jyron in forum Mezzmo Questions and Support
    Replies: 7
    Last Post: 03-22-2013, 08:45 AM
  4. Restoring Rewind/Fast Forward/Pause functions to Mezzmo DLNA Videos
    By oaks225487 in forum Mezzmo Questions and Support
    Replies: 6
    Last Post: 09-27-2012, 08:01 AM
  5. Fast Foward / Remember Position / Language Selection
    By SilentSea in forum Mezzmo Questions and Support
    Replies: 1
    Last Post: 12-06-2010, 12:13 PM

Tags for this Thread

Bookmarks

Posting Permissions

  • You may not post new threads
  • You may not post replies
  • You may not post attachments
  • You may not edit your posts
  •