Results 1 to 5 of 5

Thread: Samsung BDP: Ac3 audio problem on some files

  1. #1
    Join Date
    Dec 2010
    Posts
    19

    Default Samsung BDP: Ac3 audio problem on some files

    Hi,

    I'm having audio problems with some of my files. The audio skips, but the video is fine.
    I'm using a samsung BDP (BD-C6300). Audio of faulty files are all ac3 (some avi and mkv), and my BDP is configured to output stereo.

    Code:
    FFmpeg version SVN-r26071, Copyright (c) 2000-2010 the FFmpeg developers
      built on Dec 22 2010 10:30:32 with gcc 4.4.2
      configuration: --enable-memalign-hack --arch=x86 --target-os=mingw32 --cross-prefix=i686-mingw32- --enable-static --disable-shared --enable-zlib --disable-ffprobe --disable-ffplay --prefix=/media/windows-share/ffmpeg --extra-cflags=-U__STRICT_ANSI__ --enable-libmp3lame --enable-libx264 --enable-gpl --extra-libs='-lx264 -lpthread' --enable-runtime-cpudetect
      libavutil     50.35. 0 / 50.35. 0
      libavcore      0.16. 0 /  0.16. 0
      libavcodec    52.100. 0 / 52.100. 0
      libavformat   52.88. 0 / 52.88. 0
      libavdevice   52. 2. 2 / 52. 2. 2
      libavfilter    1.69. 0 /  1.69. 0
      libswscale     0.12. 0 /  0.12. 0
    [avi @ 011dce10] max_analyze_duration reached
    
    Seems stream 0 codec frame rate differs from container frame rate: 47.95 (5994/125) -> 23.98 (24000/1001)
    Input #0, avi, from 'D:\Videos\Movies\MyMovie.avi':
      Metadata:
        encoder         : Lavf52.32.0
      Duration: 01:37:50.99, start: 0.000000, bitrate: 1605 kb/s
        Stream #0.0: Video: h264, yuv420p, 1280x720 [PAR 1:1 DAR 16:9], 23.98 fps, 23.98 tbr, 23.98 tbn, 47.95 tbc
        Stream #0.1: Audio: ac3, 44100 Hz, stereo, s16, 80 kb/s
    At least one output file must be specified
    
    ---> DB Level Info: 41
    Any ideas what is causing this?

    Thanks and regards

  2. #2

    Default

    I know this is not helpful, but your lucky you even get any audio. With AC3 containing mkv's my samsung bd-c5900 is absolutely silent. :s

  3. #3
    Join Date
    Nov 2007
    Location
    Melbourne, Australia
    Posts
    11,616

    Default

    That file should play fine natively. Is it possible for you to send it to us via a service like www.megaupload.com so that we could try it here? Also, have you tried playing it using PCSM and if you have - does it play ok?

    What firmware version do you have on your BDP?

    Mezzmo Android: Install it on your tablet, smartphone, Android TV or Amazon Fire to browse and stream files from your Mezzmo library to all your devices. Full details at http://www.conceiva.com/products/mez...mo_android.asp
    Mezzmo for Kodi Add-on: Install it into Kodi to stream files from your Mezzmo library directly in Kodi. Full details at http://www.mezzmo.com/wiki/doku.php?...odi_user_guide
    Mezzmo for Roku App: Install it onto your Roku to stream files from your Mezzmo library. Full details at http://www.mezzmo.com/wiki/doku.php?...oku_user_guide
    Wiki: User Guides & Reference Manual at http://www.mezzmo.com/wiki
    Facebook: http://www.facebook.com/Mezzmo.DLNA.Server
    Twitter: https://twitter.com/conceiva_mezzmo
    Web: http://www.mezzmo.com

  4. #4
    Join Date
    Dec 2010
    Posts
    19

    Default

    Tried with PCSM and in USB drive: the audio had the same problem.
    Also tried these files on my TV (usb port in Samsung LNC540), they worked perfectly!?!
    So, I guest it must be a problem with the BDP...

    FW of BDP: BSP-C6300WWB-1020.1

    Let me know if you still want the file.

  5. #5
    Join Date
    Nov 2007
    Location
    Melbourne, Australia
    Posts
    11,616

    Default

    I'm guessing it's the file - we have the same firmware here (alsmost, it's also 1020.1, but different prefix) and it plays MKVs with AC3 sound ok. The TV has a slightly different engine, so it may more or less and may be more tolerant to some encodings.

    Mezzmo Android: Install it on your tablet, smartphone, Android TV or Amazon Fire to browse and stream files from your Mezzmo library to all your devices. Full details at http://www.conceiva.com/products/mez...mo_android.asp
    Mezzmo for Kodi Add-on: Install it into Kodi to stream files from your Mezzmo library directly in Kodi. Full details at http://www.mezzmo.com/wiki/doku.php?...odi_user_guide
    Mezzmo for Roku App: Install it onto your Roku to stream files from your Mezzmo library. Full details at http://www.mezzmo.com/wiki/doku.php?...oku_user_guide
    Wiki: User Guides & Reference Manual at http://www.mezzmo.com/wiki
    Facebook: http://www.facebook.com/Mezzmo.DLNA.Server
    Twitter: https://twitter.com/conceiva_mezzmo
    Web: http://www.mezzmo.com

Tags for this Thread

Bookmarks

Posting Permissions

  • You may not post new threads
  • You may not post replies
  • You may not post attachments
  • You may not edit your posts
  •