Results 1 to 4 of 4

Thread: Mezzmo not showing .TP files

  1. #1

    Default Mezzmo not showing .TP files

    I installed Mezzmo 2.1.12.0 last night without issue. I set up shared media folders in the Mezzmo library. These media folders, and MOST of their contents, are visible (and playable) to other UPnP/DLNA devices on the network, but Mezzmo doesn't seem to recognize .TP files. Odd, since Mezzmo seems to have such a comprehensive list of compatible files. .AVI .MPG. and .MP4 files, for example, do show up and stream.

    For some background, .TP files are simply MPEG2 Transport Streams (similar to .MT2S, but with a different extension) as recorded by BeyondTV and HDHomeRun. As this is my primary DVR, much of my media is in this format. Other media servers have been able to recoginze and stream the same .TP files just fine.

    Is there anything I can tweak inside Mezzmo to get it to recognize these files?

    Thanks in advance.
    Last edited by TVsoundguy; 01-15-2011 at 05:46 AM.

  2. #2
    Join Date
    Nov 2007
    Location
    Melbourne, Australia
    Posts
    11,616

    Default

    Can you please rename one of those files to have an extension of .m2ts (for example, just so you can add it to Mezzmo), then add it to Mezzmo, right-click on the file and use the "Get FFmpeg Information" command. After that please post the results here and we'll add this extension in the next minor update.

    Mezzmo Android: Install it on your tablet, smartphone, Android TV or Amazon Fire to browse and stream files from your Mezzmo library to all your devices. Full details at http://www.conceiva.com/products/mez...mo_android.asp
    Mezzmo for Kodi Add-on: Install it into Kodi to stream files from your Mezzmo library directly in Kodi. Full details at http://www.mezzmo.com/wiki/doku.php?...odi_user_guide
    Mezzmo for Roku App: Install it onto your Roku to stream files from your Mezzmo library. Full details at http://www.mezzmo.com/wiki/doku.php?...oku_user_guide
    Wiki: User Guides & Reference Manual at http://www.mezzmo.com/wiki
    Facebook: http://www.facebook.com/Mezzmo.DLNA.Server
    Twitter: https://twitter.com/conceiva_mezzmo
    Web: http://www.mezzmo.com

  3. #3

    Default

    Hi Dennis,

    Thanks for the prompt response and sorry about the huge delay. Work and life forced my to put my Mezzmo testing on hold for some time. At any rate, I've since uninstalled Mezzmo 2.1.12.0 trial and installed 2.2.0.0 trial. .TP files still aren't recognized by Mezzmo. As requested, I renamed a .TP file to .M2TS and it is recognized by Mezzmo and streams just fine when not transcoding. Here's the ffmpeg info from one of the files.

    The Event-(Pilot)-2010-09-20-0-M2TS.m2ts (renamed from .TP)

    Code:
    FFmpeg version git-c3897d7, Copyright (c) 2000-2011 the FFmpeg developers
      built on Feb 28 2011 10:03:54 with gcc 4.4.2
      configuration: --enable-memalign-hack --arch=x86 --target-os=mingw32 --cross-prefix=i686-mingw32- --enable-static --disable-shared --enable-zlib --disable-ffprobe --disable-ffplay --prefix=/media/windows/ffmpeg --extra-cflags=-U__STRICT_ANSI__ --enable-libmp3lame --enable-libx264 --enable-gpl --extra-libs='-lx264 -lpthread' --enable-runtime-cpudetect
      libavutil    50. 39. 0 / 50. 39. 0
      libavcodec   52.113. 2 / 52.113. 2
      libavformat  52.102. 0 / 52.102. 0
      libavdevice  52.  2. 3 / 52.  2. 3
      libavfilter   1. 76. 0 /  1. 76. 0
      libswscale    0. 12. 0 /  0. 12. 0
    [mpeg2video @ 02f080b0] mpeg_decode_postinit() failure
    
    Seems stream 0 codec frame rate differs from container frame rate: 59.94 (60000/1001) -> 59.94 (60000/1001)
        Last message repeated 8 times
    Input #0, mpegts, from 'E:\test video files\The Event-(Pilot)-2010-09-20-0-M2TS.m2ts':
      Duration: 01:01:54.80, start: 49099.492989, bitrate: 11942 kb/s
      Program 704 
        Stream #0.0[0x220]: Video: mpeg2video, yuv420p, 1920x1080 [PAR 1:1 DAR 16:9], 65000 kb/s, 27.25 fps, 59.94 tbr, 90k tbn, 59.94 tbc
        Stream #0.1[0x221](eng): Audio: ac3, 48000 Hz, 5.1, s16, 384 kb/s
        Stream #0.2[0x222](spa): Audio: ac3, 48000 Hz, stereo, s16, 192 kb/s
    At least one output file must be specified
    
    
    ---> DB Level Info: 4
    Thanks for your outstanding support.

    Best,
    Chris

  4. #4
    Join Date
    Nov 2007
    Location
    Melbourne, Australia
    Posts
    11,616

    Default

    Hi Chris,

    Thanks for the info - we'll add the .tp extension to the next minor Mezzmo update.

    Mezzmo Android: Install it on your tablet, smartphone, Android TV or Amazon Fire to browse and stream files from your Mezzmo library to all your devices. Full details at http://www.conceiva.com/products/mez...mo_android.asp
    Mezzmo for Kodi Add-on: Install it into Kodi to stream files from your Mezzmo library directly in Kodi. Full details at http://www.mezzmo.com/wiki/doku.php?...odi_user_guide
    Mezzmo for Roku App: Install it onto your Roku to stream files from your Mezzmo library. Full details at http://www.mezzmo.com/wiki/doku.php?...oku_user_guide
    Wiki: User Guides & Reference Manual at http://www.mezzmo.com/wiki
    Facebook: http://www.facebook.com/Mezzmo.DLNA.Server
    Twitter: https://twitter.com/conceiva_mezzmo
    Web: http://www.mezzmo.com

Tags for this Thread

Bookmarks

Posting Permissions

  • You may not post new threads
  • You may not post replies
  • You may not post attachments
  • You may not edit your posts
  •