Page 2 of 2 FirstFirst 12
Results 11 to 14 of 14

Thread: Unusual Stuttering and Halted Playback

  1. #11
    Join Date
    Jan 2011
    Location
    Saskatoon, SK, Canada
    Posts
    106

    Default

    In case it helps, here's the ffmpeg info on two of the many divx files that have been randomly stopping in playback, but can be played again through the same spot with no problems:

    file 1:

    FFmpeg version git-c3897d7, Copyright (c) 2000-2011 the FFmpeg developers
    built on Jan 20 2011 13:56:32 with gcc 4.4.2
    configuration: --enable-memalign-hack --arch=x86 --target-os=mingw32 --cross-prefix=i686-mingw32- --enable-static --disable-shared --enable-zlib --disable-ffprobe --disable-ffplay --prefix=/media/windows/ffmpeg --extra-cflags=-U__STRICT_ANSI__ --enable-libmp3lame --enable-libx264 --enable-gpl --extra-libs='-lx264 -lpthread' --enable-runtime-cpudetect
    libavutil 50.36. 0 / 50.36. 0
    libavcore 0.16. 1 / 0.16. 1
    libavcodec 52.108. 0 / 52.108. 0
    libavformat 52.94. 0 / 52.94. 0
    libavdevice 52. 2. 3 / 52. 2. 3
    libavfilter 1.74. 0 / 1.74. 0
    libswscale 0.12. 0 / 0.12. 0

    Seems stream 0 codec frame rate differs from container frame rate: 23.98 (65535/2733) -> 23.98 (2997/125)
    Input #0, avi, from 'F:\SD Movies\(filename removed)':
    Metadata:
    encoder : VirtualDubMod 1.5.10.2 (build 2540/release)
    Duration: 01:52:21.57, start: 0.000000, bitrate: 871 kb/s
    Stream #0.0: Video: mpeg4, yuv420p, 612x334 [PAR 1:1 DAR 306:167], 23.98 tbr, 23.98 tbn, 23.98 tbc
    Stream #0.1: Audio: mp3, 48000 Hz, 2 channels, s16, 128 kb/s
    At least one output file must be specified

    ---> DB Level Info: -99

    file 2:

    FFmpeg version git-c3897d7, Copyright (c) 2000-2011 the FFmpeg developers
    built on Jan 20 2011 13:56:32 with gcc 4.4.2
    configuration: --enable-memalign-hack --arch=x86 --target-os=mingw32 --cross-prefix=i686-mingw32- --enable-static --disable-shared --enable-zlib --disable-ffprobe --disable-ffplay --prefix=/media/windows/ffmpeg --extra-cflags=-U__STRICT_ANSI__ --enable-libmp3lame --enable-libx264 --enable-gpl --extra-libs='-lx264 -lpthread' --enable-runtime-cpudetect
    libavutil 50.36. 0 / 50.36. 0
    libavcore 0.16. 1 / 0.16. 1
    libavcodec 52.108. 0 / 52.108. 0
    libavformat 52.94. 0 / 52.94. 0
    libavdevice 52. 2. 3 / 52. 2. 3
    libavfilter 1.74. 0 / 1.74. 0
    libswscale 0.12. 0 / 0.12. 0
    [mpeg4 @ 01111fa0] Invalid and inefficient vfw-avi packed B frames detected
    Input #0, avi, from '(filename removed)':
    Metadata:
    encoder : VirtualDubMod 1.5.10.3 | www.virtualdub-fr.org || (build 2550/release)
    Duration: 01:36:15.88, start: 0.000000, bitrate: 2028 kb/s
    Stream #0.0: Video: mpeg4, yuv420p, 720x400 [PAR 1:1 DAR 9:5], 25 tbr, 25 tbn, 25 tbc
    Stream #0.1: Audio: mp3, 44100 Hz, 2 channels, s16, 192 kb/s
    At least one output file must be specified

    ---> DB Level Info: -99


    Would you like me to turn on diagnostic logging and send you the log file on the next file that exhibits the problem?

  2. #12
    Join Date
    Nov 2007
    Location
    Melbourne, Australia
    Posts
    11,646

    Default

    Quote Originally Posted by Aaron407 View Post
    Would you like me to turn on diagnostic logging and send you the log file on the next file that exhibits the problem?
    Yep, it won't hurt Those files should be passed through natively, so it must be a streaming issue.

    Do you have any other networking-type software running (e.g. RealVNC)?

    Mezzmo Android: Install it on your tablet, smartphone, Android TV or Amazon Fire to browse and stream files from your Mezzmo library to all your devices. Full details at http://www.conceiva.com/products/mez...mo_android.asp
    Mezzmo for Kodi Add-on: Install it into Kodi to stream files from your Mezzmo library directly in Kodi. Full details at http://www.mezzmo.com/wiki/doku.php?...odi_user_guide
    Mezzmo for Roku App: Install it onto your Roku to stream files from your Mezzmo library. Full details at http://www.mezzmo.com/wiki/doku.php?...oku_user_guide
    Wiki: User Guides & Reference Manual at http://www.mezzmo.com/wiki
    Facebook: http://www.facebook.com/Mezzmo.DLNA.Server
    Twitter: https://twitter.com/conceiva_mezzmo
    Web: http://www.mezzmo.com

  3. #13
    Join Date
    Jan 2011
    Location
    Saskatoon, SK, Canada
    Posts
    106

    Default

    Ok, logging's turned on. Can't say I know for sure the next time I'll be streaming a divx, but should be within the next couple days. I'll keep you posted.

    I don't have any other networking software running. I had installed Mezzmo on a hardwired, freshly-built computer with the bare essentials, but also experienced the same problems with a different computer running over wireless.

  4. #14
    Join Date
    Nov 2007
    Location
    Melbourne, Australia
    Posts
    11,646

    Default

    I wouldn't turn on logging until just before you play a file, otherwise the logs will grow to a huge size and may actually hit over 4GBs in a couple of days. If the logs hit 4GBs in size, streaming will stop (known issue).

    Mezzmo Android: Install it on your tablet, smartphone, Android TV or Amazon Fire to browse and stream files from your Mezzmo library to all your devices. Full details at http://www.conceiva.com/products/mez...mo_android.asp
    Mezzmo for Kodi Add-on: Install it into Kodi to stream files from your Mezzmo library directly in Kodi. Full details at http://www.mezzmo.com/wiki/doku.php?...odi_user_guide
    Mezzmo for Roku App: Install it onto your Roku to stream files from your Mezzmo library. Full details at http://www.mezzmo.com/wiki/doku.php?...oku_user_guide
    Wiki: User Guides & Reference Manual at http://www.mezzmo.com/wiki
    Facebook: http://www.facebook.com/Mezzmo.DLNA.Server
    Twitter: https://twitter.com/conceiva_mezzmo
    Web: http://www.mezzmo.com

Tags for this Thread

Bookmarks

Posting Permissions

  • You may not post new threads
  • You may not post replies
  • You may not post attachments
  • You may not edit your posts
  •