Results 1 to 6 of 6

Thread: Cannot View JPEGS and some AVI's - Panasonic TXP50GBA

  1. #1

    Default Cannot View JPEGS and some AVI's - Panasonic TXP50GBA

    Presently using 14 day trial. Mezzmo does everything I need (almost) including seamlessly playing .mkv files with no issues. However I am having issues viewing some most of my camera pictures. It appears to display those that have been cropped or resized but not the unaltered ones. These are about 3-4mb.

    As I mentioned it seems to play most mkv files with no issues but quite a few avi's wont play.

    Spec:
    Vista x64
    AMD Phenom II X6 1055T 2.8GHz
    4GB RAM
    ATI HD5870 1GB

    TV: Panasonic TX-P50GBA
    Netgear N600 Wireless USB adapter (WNDA3100)

    I would really like to purchase the product, but at the moment it isn't fully functioning for me, are you able to assist?

    Below is the FFmpeg info first for a working photo, then a non working photo, then a working avi then a non working avi.

    working photo
    Unfortunately I can't now seem to see those in library either

    Non working photo
    FFmpeg version git-c3897d7, Copyright (c) 2000-2011 the FFmpeg developers
    built on Jan 20 2011 13:56:32 with gcc 4.4.2
    configuration: --enable-memalign-hack --arch=x86 --target-os=mingw32 --cross-prefix=i686-mingw32- --enable-static --disable-shared --enable-zlib --disable-ffprobe --disable-ffplay --prefix=/media/windows/ffmpeg --extra-cflags=-U__STRICT_ANSI__ --enable-libmp3lame --enable-libx264 --enable-gpl --extra-libs='-lx264 -lpthread' --enable-runtime-cpudetect
    libavutil 50.36. 0 / 50.36. 0
    libavcore 0.16. 1 / 0.16. 1
    libavcodec 52.108. 0 / 52.108. 0
    libavformat 52.94. 0 / 52.94. 0
    libavdevice 52. 2. 3 / 52. 2. 3
    libavfilter 1.74. 0 / 1.74. 0
    libswscale 0.12. 0 / 0.12. 0
    Input #0, image2, from 'J:\My Documents\Pictures\201007 Exige Lundie\DSC_0371.jpg':
    Duration: 00:00:00.04, start: 0.000000, bitrate: N/A
    Stream #0.0: Video: mjpeg, yuvj444p, 3008x2000, 25 tbr, 25 tbn, 25 tbc
    At least one output file must be specified


    ---> DB Level Info: 0

    Working avi
    FFmpeg version git-c3897d7, Copyright (c) 2000-2011 the FFmpeg developers
    built on Jan 20 2011 13:56:32 with gcc 4.4.2
    configuration: --enable-memalign-hack --arch=x86 --target-os=mingw32 --cross-prefix=i686-mingw32- --enable-static --disable-shared --enable-zlib --disable-ffprobe --disable-ffplay --prefix=/media/windows/ffmpeg --extra-cflags=-U__STRICT_ANSI__ --enable-libmp3lame --enable-libx264 --enable-gpl --extra-libs='-lx264 -lpthread' --enable-runtime-cpudetect
    libavutil 50.36. 0 / 50.36. 0
    libavcore 0.16. 1 / 0.16. 1
    libavcodec 52.108. 0 / 52.108. 0
    libavformat 52.94. 0 / 52.94. 0
    libavdevice 52. 2. 3 / 52. 2. 3
    libavfilter 1.74. 0 / 1.74. 0
    libswscale 0.12. 0 / 0.12. 0

    Seems stream 0 codec frame rate differs from container frame rate: 23.98 (65535/2733) -> 23.98 (24000/1001)
    Input #0, avi, from 'D:\My TV\4.HDTV.XviD-LOL.avi':
    Metadata:
    encoder : VirtualDubMod 1.5.10.2 (build 2540/release)
    Duration: 00:21:14.56, start: 0.000000, bitrate: 1152 kb/s
    Stream #0.0: Video: mpeg4, yuv420p, 624x352 [PAR 1:1 DAR 39:22], 23.98 tbr, 23.98 tbn, 23.98 tbc
    Stream #0.1: Audio: mp3, 48000 Hz, 2 channels, s16, 126 kb/s
    At least one output file must be specified


    ---> DB Level Info: -99

    Non working avi
    FFmpeg version git-c3897d7, Copyright (c) 2000-2011 the FFmpeg developers
    built on Jan 20 2011 13:56:32 with gcc 4.4.2
    configuration: --enable-memalign-hack --arch=x86 --target-os=mingw32 --cross-prefix=i686-mingw32- --enable-static --disable-shared --enable-zlib --disable-ffprobe --disable-ffplay --prefix=/media/windows/ffmpeg --extra-cflags=-U__STRICT_ANSI__ --enable-libmp3lame --enable-libx264 --enable-gpl --extra-libs='-lx264 -lpthread' --enable-runtime-cpudetect
    libavutil 50.36. 0 / 50.36. 0
    libavcore 0.16. 1 / 0.16. 1
    libavcodec 52.108. 0 / 52.108. 0
    libavformat 52.94. 0 / 52.94. 0
    libavdevice 52. 2. 3 / 52. 2. 3
    libavfilter 1.74. 0 / 1.74. 0
    libswscale 0.12. 0 / 0.12. 0
    Input #0, avi, from 'D:\My TV\HDTV.XviD-FQM.avi':
    Metadata:
    encoder : transcode-1.0.4
    Duration: 00:21:07.72, start: 0.000000, bitrate: 1155 kb/s
    Stream #0.0: Video: mpeg4, yuv420p, 624x352 [PAR 1:1 DAR 39:22], 23.98 tbr, 23.98 tbn, 23.98 tbc
    Stream #0.1: Audio: mp3, 48000 Hz, 2 channels, s16, 128 kb/s
    At least one output file must be specified


    ---> DB Level Info: -99

  2. #2
    Join Date
    Nov 2007
    Location
    Melbourne, Australia
    Posts
    11,646

    Default

    Can you please send a message to support (at) conceiva (dot) com - we've got an updated device profile for the Panasonic TVs that may work better for you.

    With the AVIs you've posted - it's possible that the second one has some encoding techniques that the TV doesn't support. Can you please post MediaInfo on those two files as well, as that may show us more information on the internals of the video stream.

    Mezzmo Android: Install it on your tablet, smartphone, Android TV or Amazon Fire to browse and stream files from your Mezzmo library to all your devices. Full details at http://www.conceiva.com/products/mez...mo_android.asp
    Mezzmo for Kodi Add-on: Install it into Kodi to stream files from your Mezzmo library directly in Kodi. Full details at http://www.mezzmo.com/wiki/doku.php?...odi_user_guide
    Mezzmo for Roku App: Install it onto your Roku to stream files from your Mezzmo library. Full details at http://www.mezzmo.com/wiki/doku.php?...oku_user_guide
    Wiki: User Guides & Reference Manual at http://www.mezzmo.com/wiki
    Facebook: http://www.facebook.com/Mezzmo.DLNA.Server
    Twitter: https://twitter.com/conceiva_mezzmo
    Web: http://www.mezzmo.com

  3. #3

    Default

    Thank you for the prompt response. I have also emailed the info to Support. I would also really like to view my JPEGs also. Hopefully you can help.

    I have just tried playing the two avi files from an SD card slotted into the TV and they both work without issue.

    Non Working File MediaInfo
    General
    Complete name : D:\My TV\01.S.4.HDTV.XviD-FQM.avi
    Format : AVI
    Format/Info : Audio Video Interleave
    File size : 175 MiB
    Duration : 21mn 7s
    Overall bit rate : 1 155 Kbps
    Writing application : transcode-1.0.4

    Video
    ID : 0
    Format : MPEG-4 Visual
    Format profile : Advanced Simple@L5
    Format settings, BVOP : 2
    Format settings, QPel : No
    Format settings, GMC : No warppoints
    Format settings, Matrix : Default (H.263)
    Codec ID : XVID
    Codec ID/Hint : XviD
    Duration : 21mn 7s
    Bit rate : 978 Kbps
    Width : 624 pixels
    Height : 352 pixels
    Display aspect ratio : 16:9
    Frame rate : 23.976 fps
    Color space : YUV
    Chroma subsampling : 4:2:0
    Bit depth : 8 bits
    Scan type : Progressive
    Compression mode : Lossy
    Bits/(Pixel*Frame) : 0.186
    Stream size : 148 MiB (85%)
    Writing library : XviD 1.2.1 (UTC 2008-12-04)

    Audio
    ID : 1
    Format : MPEG Audio
    Format version : Version 1
    Format profile : Layer 3
    Codec ID : 55
    Codec ID/Hint : MP3
    Duration : 21mn 7s
    Bit rate mode : Variable
    Bit rate : 128 Kbps
    Channel(s) : 2 channels
    Sampling rate : 48.0 KHz
    Compression mode : Lossy
    Stream size : 24.9 MiB (14%)
    Alignment : Aligned on interleaves
    Interleave, duration : 24 ms (0.58 video frame)
    Writing library : LAME3.98.2

    Working File Media Info
    General
    Complete name : D:\My TV\04.S4.HDTV.XviD-LOL.avi
    Format : AVI
    Format/Info : Audio Video Interleave
    File size : 175 MiB
    Duration : 21mn 14s
    Overall bit rate : 1 152 Kbps
    Writing application : VirtualDubMod 1.5.10.2 (build 2540/release)
    Writing library : VirtualDubMod build 2540/release

    Video
    ID : 0
    Format : MPEG-4 Visual
    Format profile : Advanced Simple@L5
    Format settings, BVOP : 2
    Format settings, QPel : No
    Format settings, GMC : No warppoints
    Format settings, Matrix : Default (H.263)
    Codec ID : XVID
    Codec ID/Hint : XviD
    Duration : 21mn 14s
    Bit rate : 1 013 Kbps
    Width : 624 pixels
    Height : 352 pixels
    Display aspect ratio : 16:9
    Frame rate : 23.976 fps
    Color space : YUV
    Chroma subsampling : 4:2:0
    Bit depth : 8 bits
    Scan type : Progressive
    Compression mode : Lossy
    Bits/(Pixel*Frame) : 0.192
    Stream size : 154 MiB (88%)
    Writing library : XviD 1.2.1 (UTC 2008-12-04)

    Audio
    ID : 1
    Format : MPEG Audio
    Format version : Version 1
    Format profile : Layer 3
    Mode : Joint stereo
    Codec ID : 55
    Codec ID/Hint : MP3
    Duration : 21mn 14s
    Bit rate mode : Variable
    Bit rate : 131 Kbps
    Channel(s) : 2 channels
    Sampling rate : 48.0 KHz
    Compression mode : Lossy
    Stream size : 19.2 MiB (11%)
    Alignment : Aligned on interleaves
    Interleave, duration : 24 ms (0.58 video frame)
    Interleave, preload duration : 490 ms
    Writing library : LAME3.98r
    Encoding settings : -m j -V 4 -q 3 -lowpass 17 --abr 131

  4. #4
    Join Date
    Nov 2007
    Location
    Melbourne, Australia
    Posts
    11,646

    Default

    Thanks for the MediaInfo. I'm not seeing really any significant difference between the files, so not sure why one plays and the other doesn't. Would it be possible for you to send the files to us as well?

    Mezzmo Android: Install it on your tablet, smartphone, Android TV or Amazon Fire to browse and stream files from your Mezzmo library to all your devices. Full details at http://www.conceiva.com/products/mez...mo_android.asp
    Mezzmo for Kodi Add-on: Install it into Kodi to stream files from your Mezzmo library directly in Kodi. Full details at http://www.mezzmo.com/wiki/doku.php?...odi_user_guide
    Mezzmo for Roku App: Install it onto your Roku to stream files from your Mezzmo library. Full details at http://www.mezzmo.com/wiki/doku.php?...oku_user_guide
    Wiki: User Guides & Reference Manual at http://www.mezzmo.com/wiki
    Facebook: http://www.facebook.com/Mezzmo.DLNA.Server
    Twitter: https://twitter.com/conceiva_mezzmo
    Web: http://www.mezzmo.com

  5. #5

    Default

    That's a shame. I'm sorry the files are too large for me to email across.

  6. #6
    Join Date
    Nov 2007
    Location
    Melbourne, Australia
    Posts
    11,646

    Default

    We could use a service like www.megaupload.com to exchange those files (if you could upload them there, we'll download them here).

    Mezzmo Android: Install it on your tablet, smartphone, Android TV or Amazon Fire to browse and stream files from your Mezzmo library to all your devices. Full details at http://www.conceiva.com/products/mez...mo_android.asp
    Mezzmo for Kodi Add-on: Install it into Kodi to stream files from your Mezzmo library directly in Kodi. Full details at http://www.mezzmo.com/wiki/doku.php?...odi_user_guide
    Mezzmo for Roku App: Install it onto your Roku to stream files from your Mezzmo library. Full details at http://www.mezzmo.com/wiki/doku.php?...oku_user_guide
    Wiki: User Guides & Reference Manual at http://www.mezzmo.com/wiki
    Facebook: http://www.facebook.com/Mezzmo.DLNA.Server
    Twitter: https://twitter.com/conceiva_mezzmo
    Web: http://www.mezzmo.com

Tags for this Thread

Bookmarks

Posting Permissions

  • You may not post new threads
  • You may not post replies
  • You may not post attachments
  • You may not edit your posts
  •