Results 1 to 6 of 6

Thread: Tivx m6500a and Vob Files

  1. #1
    Join Date
    Feb 2011
    Posts
    3

    Default Tivx m6500a and Vob Files

    I recently installed Mezzmo on my PC and seem to be having problems streaming .vob filies and .mkv from my TIVX. It has no problems playing .avi files.

    With the .vob files, mezzmo will refuse to play them at all. You will get the playing screen, then the screen goes black and you have to restart the TIVX. Mkv files will play, but the file will freeze and stutter while playing.

    The TIVX model number is m6500a and the firmware is 1.5.19 UJ, Any help with this would be appreciated.

  2. #2
    Join Date
    Nov 2007
    Location
    Melbourne, Australia
    Posts
    11,616

    Default

    Which device profile are you using for the TIVX?

    Can you please post FFmpeg information on one of those VOBs so that we could try and reproduce this here?

    Mezzmo Android: Install it on your tablet, smartphone, Android TV or Amazon Fire to browse and stream files from your Mezzmo library to all your devices. Full details at http://www.conceiva.com/products/mez...mo_android.asp
    Mezzmo for Kodi Add-on: Install it into Kodi to stream files from your Mezzmo library directly in Kodi. Full details at http://www.mezzmo.com/wiki/doku.php?...odi_user_guide
    Mezzmo for Roku App: Install it onto your Roku to stream files from your Mezzmo library. Full details at http://www.mezzmo.com/wiki/doku.php?...oku_user_guide
    Wiki: User Guides & Reference Manual at http://www.mezzmo.com/wiki
    Facebook: http://www.facebook.com/Mezzmo.DLNA.Server
    Twitter: https://twitter.com/conceiva_mezzmo
    Web: http://www.mezzmo.com

  3. #3
    Join Date
    Feb 2011
    Posts
    3

    Default

    Hey Dennis,

    I am using the Dvico TVIX 6500 Device Profile and here is the ffmpeg information:

    FFmpeg version git-c3897d7, Copyright (c) 2000-2011 the FFmpeg developers
    built on Jan 20 2011 13:56:32 with gcc 4.4.2
    configuration: --enable-memalign-hack --arch=x86 --target-os=mingw32 --cross-prefix=i686-mingw32- --enable-static --disable-shared --enable-zlib --disable-ffprobe --disable-ffplay --prefix=/media/windows/ffmpeg --extra-cflags=-U__STRICT_ANSI__ --enable-libmp3lame --enable-libx264 --enable-gpl --extra-libs='-lx264 -lpthread' --enable-runtime-cpudetect
    libavutil 50.36. 0 / 50.36. 0
    libavcore 0.16. 1 / 0.16. 1
    libavcodec 52.108. 0 / 52.108. 0
    libavformat 52.94. 0 / 52.94. 0
    libavdevice 52. 2. 3 / 52. 2. 3
    libavfilter 1.74. 0 / 1.74. 0
    libswscale 0.12. 0 / 0.12. 0
    [mpeg @ 0038cf00] max_analyze_duration reached
    Seems stream 0 codec frame rate differs from container frame rate: 59.94 (60000/1001) -> 59.94 (60000/1001)
    Input #0, mpeg, from 'E:\HORROR\30 DAYS OF NIGHTS\VIDEO_TS\VTS_01_1.vob':
    Duration: 00:29:21.12, start: 0.233567, bitrate: 4877 kb/s
    Stream #0.0[0x1e0]: Video: mpeg2video, yuv420p, 720x480 [PAR 32:27 DAR 16:9], 9800 kb/s, 24.10 fps, 59.94 tbr, 90k tbn, 59.94 tbc
    Stream #0.1[0x80]: Audio: ac3, 48000 Hz, 5.1, s16, 448 kb/s
    Stream #0.2[0x82]: Audio: ac3, 48000 Hz, stereo, s16, 192 kb/s
    At least one output file must be specified

    ---> DB Level Info: 8

  4. #4
    Join Date
    Nov 2007
    Location
    Melbourne, Australia
    Posts
    11,616

    Default

    Thanks for the file info - looks very standard and should play (except for the weird frame rate of 24.10 fps). Would it be possible for you to send us that file to support (at) conceiva (dot) com (via a service like www.megaupload.com for example)?

    Mezzmo Android: Install it on your tablet, smartphone, Android TV or Amazon Fire to browse and stream files from your Mezzmo library to all your devices. Full details at http://www.conceiva.com/products/mez...mo_android.asp
    Mezzmo for Kodi Add-on: Install it into Kodi to stream files from your Mezzmo library directly in Kodi. Full details at http://www.mezzmo.com/wiki/doku.php?...odi_user_guide
    Mezzmo for Roku App: Install it onto your Roku to stream files from your Mezzmo library. Full details at http://www.mezzmo.com/wiki/doku.php?...oku_user_guide
    Wiki: User Guides & Reference Manual at http://www.mezzmo.com/wiki
    Facebook: http://www.facebook.com/Mezzmo.DLNA.Server
    Twitter: https://twitter.com/conceiva_mezzmo
    Web: http://www.mezzmo.com

  5. #5
    Join Date
    Feb 2011
    Posts
    3

    Default

    Sorry for the late reply,

    I went ahead and uploaded the .vob file to megaupload. I also sent an email to support with the information and URL for the file. Thanks for all your help with this!

  6. #6
    Join Date
    Nov 2007
    Location
    Melbourne, Australia
    Posts
    11,616

    Default

    Thanks - we'll get back to you via e-mail.

    Mezzmo Android: Install it on your tablet, smartphone, Android TV or Amazon Fire to browse and stream files from your Mezzmo library to all your devices. Full details at http://www.conceiva.com/products/mez...mo_android.asp
    Mezzmo for Kodi Add-on: Install it into Kodi to stream files from your Mezzmo library directly in Kodi. Full details at http://www.mezzmo.com/wiki/doku.php?...odi_user_guide
    Mezzmo for Roku App: Install it onto your Roku to stream files from your Mezzmo library. Full details at http://www.mezzmo.com/wiki/doku.php?...oku_user_guide
    Wiki: User Guides & Reference Manual at http://www.mezzmo.com/wiki
    Facebook: http://www.facebook.com/Mezzmo.DLNA.Server
    Twitter: https://twitter.com/conceiva_mezzmo
    Web: http://www.mezzmo.com

Tags for this Thread

Bookmarks

Posting Permissions

  • You may not post new threads
  • You may not post replies
  • You may not post attachments
  • You may not edit your posts
  •