Results 1 to 3 of 3

Thread: MP4 Doesn't work on 2.2.0

  1. #1
    Join Date
    Feb 2011
    Posts
    1

    Unhappy MP4 Doesn't work on 2.2.0

    I have multiple Sony Bravia devices that I was testing MP4 streaming using Bravia. After noticing the choppy sound, I went back to my DLNA server and ran the 2.2.0 update. After the installation, the same MP4 won't even play. All I get is a blank screen.

    FFmpeg Info:

    FFmpeg version git-c3897d7, Copyright (c) 2000-2011 the FFmpeg developers
    built on Feb 28 2011 10:03:54 with gcc 4.4.2
    configuration: --enable-memalign-hack --arch=x86 --target-os=mingw32 --cross-prefix=i686-mingw32- --enable-static --disable-shared --enable-zlib --disable-ffprobe --disable-ffplay --prefix=/media/windows/ffmpeg --extra-cflags=-U__STRICT_ANSI__ --enable-libmp3lame --enable-libx264 --enable-gpl --extra-libs='-lx264 -lpthread' --enable-runtime-cpudetect
    libavutil 50. 39. 0 / 50. 39. 0
    libavcodec 52.113. 2 / 52.113. 2
    libavformat 52.102. 0 / 52.102. 0
    libavdevice 52. 2. 3 / 52. 2. 3
    libavfilter 1. 76. 0 / 1. 76. 0
    libswscale 0. 12. 0 / 0. 12. 0
    [mov,mp4,m4a,3gp,3g2,mj2 @ 003ecd50] max_analyze_duration reached

    Seems stream 0 codec frame rate differs from container frame rate: 180000.00 (180000/1) -> 90000.00 (180000/2)
    Input #0, mov,mp4,m4a,3gp,3g2,mj2, from 'C:\Storage\Movies\Handbrake\THE_INCREDIBLES_MP4_R F10_FAAC_SOURCE.m4v':
    Metadata:
    major_brand : mp42
    minor_version : 0
    compatible_brands: mp42isomavc1
    creation_time : 2011-03-04 23:35:39
    encoder : HandBrake 0.9.5 2011010300
    Duration: 01:55:24.38, start: 0.000000, bitrate: 5870 kb/s
    Chapter #0.0: start -0.083411, end 555.566911
    Metadata:
    title : Chapter 1
    Chapter #0.1: start 555.566911, end 693.738278
    Metadata:
    title : Chapter 2
    Chapter #0.2: start 693.738278, end 812.356778
    Metadata:
    title : Chapter 3
    Chapter #0.3: start 812.356778, end 1029.540411
    Metadata:
    title : Chapter 4
    Chapter #0.4: start 1029.540411, end 1245.930844
    Metadata:
    title : Chapter 5
    Chapter #0.5: start 1245.930844, end 1614.632511
    Metadata:
    title : Chapter 6
    Chapter #0.6: start 1614.632511, end 1843.227544
    Metadata:
    title : Chapter 7
    Chapter #0.7: start 1843.227544, end 2095.604600
    Metadata:
    title : Chapter 8
    Chapter #0.8: start 2095.604600, end 2488.330267
    Metadata:
    title : Chapter 9
    Chapter #0.9: start 2488.330267, end 2762.771100
    Metadata:
    title : Chapter 10
    Chapter #0.10: start 2762.771100, end 2935.610433
    Metadata:
    title : Chapter 11
    Chapter #0.11: start 2935.610433, end 3003.177933
    Metadata:
    title : Chapter 12
    Chapter #0.12: start 3003.177933, end 3242.783967
    Metadata:
    title : Chapter 13
    Chapter #0.13: start 3242.783967, end 3430.488144
    Metadata:
    title : Chapter 14
    Chapter #0.14: start 3430.488144, end 3636.718744
    Metadata:
    title : Chapter 15
    Chapter #0.15: start 3636.718744, end 3905.836844
    Metadata:
    title : Chapter 16
    Chapter #0.16: start 3905.836844, end 4254.693567
    Metadata:
    title : Chapter 17
    Chapter #0.17: start 4254.693567, end 4378.850933
    Metadata:
    title : Chapter 18
    Chapter #0.18: start 4378.850933, end 4588.527067
    Metadata:
    title : Chapter 19
    Chapter #0.19: start 4588.527067, end 4760.198567
    Metadata:
    title : Chapter 20
    Chapter #0.20: start 4760.198567, end 4874.846433
    Metadata:
    title : Chapter 21
    Chapter #0.21: start 4874.846433, end 5040.645400
    Metadata:
    title : Chapter 22
    Chapter #0.22: start 5040.645400, end 5226.664567
    Metadata:
    title : Chapter 23
    Chapter #0.23: start 5226.664567, end 5430.868567
    Metadata:
    title : Chapter 24
    Chapter #0.24: start 5430.868567, end 5568.339233
    Metadata:
    title : Chapter 25
    Chapter #0.25: start 5568.339233, end 5614.051567
    Metadata:
    title : Chapter 26
    Chapter #0.26: start 5614.051567, end 5671.475600
    Metadata:
    title : Chapter 27
    Chapter #0.27: start 5671.475600, end 5824.094733
    Metadata:
    title : Chapter 28
    Chapter #0.28: start 5824.094733, end 6119.056067
    Metadata:
    title : Chapter 29
    Chapter #0.29: start 6119.056067, end 6337.974767
    Metadata:
    title : Chapter 30
    Chapter #0.30: start 6337.974767, end 6454.274267
    Metadata:
    title : Chapter 31
    Chapter #0.31: start 6454.274267, end 6923.939311
    Metadata:
    title : Chapter 32
    Stream #0.0(und): Video: h264 (High), yuv420p, 720x358 [PAR 32:27 DAR 1280:537], 5255 kb/s, 23.98 fps, 90k tbr, 90k tbn, 180k tbc
    Metadata:
    creation_time : 2011-03-04 23:35:39
    Stream #0.1(eng): Audio: aac, 48000 Hz, stereo, s16, 159 kb/s
    Metadata:
    creation_time : 2011-03-04 23:35:39
    Stream #0.2(eng): Audio: ac3, 48000 Hz, 6 channels, s16, 448 kb/s
    Metadata:
    creation_time : 2011-03-04 23:35:39
    Stream #0.3(und): Subtitle: text / 0x74786574
    Metadata:
    creation_time : 2011-03-04 23:35:39
    At least one output file must be specified


    ---> DB Level Info: 30

  2. #2
    Join Date
    Jan 2011
    Location
    Saskatoon, SK, Canada
    Posts
    106

    Default

    MP4's that previously worked (through transcoding) on my BDP-S370 aren't working anymore either after the update.

    EDIT: I got mine temporarily figured out by playing with the profile. Exactly which profile are you using?
    Last edited by Aaron407; 03-06-2011 at 03:39 PM.

  3. #3
    Join Date
    Nov 2007
    Location
    Melbourne, Australia
    Posts
    11,616

    Default

    Send us your logs to support [at] conceiva [dot] com and we will work out what is going wrong. Remember to tell us what TV model you have and the device profile you are using.

    Mezzmo Android: Install it on your tablet, smartphone, Android TV or Amazon Fire to browse and stream files from your Mezzmo library to all your devices. Full details at http://www.conceiva.com/products/mez...mo_android.asp
    Mezzmo for Kodi Add-on: Install it into Kodi to stream files from your Mezzmo library directly in Kodi. Full details at http://www.mezzmo.com/wiki/doku.php?...odi_user_guide
    Mezzmo for Roku App: Install it onto your Roku to stream files from your Mezzmo library. Full details at http://www.mezzmo.com/wiki/doku.php?...oku_user_guide
    Wiki: User Guides & Reference Manual at http://www.mezzmo.com/wiki
    Facebook: http://www.facebook.com/Mezzmo.DLNA.Server
    Twitter: https://twitter.com/conceiva_mezzmo
    Web: http://www.mezzmo.com

Similar Threads

  1. Stream Blu-ray m2ts to Samsung C/BDP doesn't work well
    By waffull in forum Mezzmo Questions and Support
    Replies: 6
    Last Post: 01-10-2011, 11:13 AM
  2. Pauae doesnt't work on Toshiba
    By MikeT in forum Mezzmo Questions and Support
    Replies: 1
    Last Post: 01-10-2011, 10:58 AM
  3. Will Mezzmo work for me?
    By rbn1 in forum Mezzmo Questions and Support
    Replies: 3
    Last Post: 01-01-2011, 10:42 AM
  4. The commandline does NOT work
    By ziongates in forum DownloadStudio Questions and Support
    Replies: 3
    Last Post: 03-02-2009, 09:34 AM
  5. Will downloadstudio work on this website?
    By topoco in forum DownloadStudio Questions and Support
    Replies: 3
    Last Post: 12-12-2008, 04:07 PM

Tags for this Thread

Bookmarks

Posting Permissions

  • You may not post new threads
  • You may not post replies
  • You may not post attachments
  • You may not edit your posts
  •