Results 1 to 4 of 4

Thread: Having trouble with my video on mezzmo

  1. #1
    Join Date
    Mar 2011
    Posts
    2

    Default Having trouble with my video on mezzmo

    I downloaded mezzmo trial today, to see if i could get it to work with my sony bluray. And it did. But im having trouble showing my videos. they are not full length, only a couple of minutes, and it just play those minutes over and over again.

    How can i fix this? is it because its a trial or will i have the same problem if i buy the product?

  2. #2

    Default

    Quote Originally Posted by Enits View Post
    I downloaded mezzmo trial today, to see if i could get it to work with my sony bluray. And it did. But im having trouble showing my videos. they are not full length, only a couple of minutes, and it just play those minutes over and over again.

    How can i fix this? is it because its a trial or will i have the same problem if i buy the product?
    Can you post the FFMPEG info of any of the files?

    I found out that depending on the computer you're running and the file you're trying to use sometimes you'll have to play it, then pause it for a minute or two then start running it so that the transcoding can get ahead of the DLNA device.

    Just FYI FAQ: How to get FFmpeg information about a file

  3. #3
    Join Date
    Mar 2011
    Posts
    2

    Default

    FFmpeg version git-c3897d7, Copyright (c) 2000-2011 the FFmpeg developers
    built on Feb 28 2011 10:03:54 with gcc 4.4.2
    configuration: --enable-memalign-hack --arch=x86 --target-os=mingw32 --cross-prefix=i686-mingw32- --enable-static --disable-shared --enable-zlib --disable-ffprobe --disable-ffplay --prefix=/media/windows/ffmpeg --extra-cflags=-U__STRICT_ANSI__ --enable-libmp3lame --enable-libx264 --enable-gpl --extra-libs='-lx264 -lpthread' --enable-runtime-cpudetect
    libavutil 50. 39. 0 / 50. 39. 0
    libavcodec 52.113. 2 / 52.113. 2
    libavformat 52.102. 0 / 52.102. 0
    libavdevice 52. 2. 3 / 52. 2. 3
    libavfilter 1. 76. 0 / 1. 76. 0
    libswscale 0. 12. 0 / 0. 12. 0
    Input #0, avi, from 'D:\One.Tree.Hill.S08E15.HDTV.XviD-ASAP.avi':
    Metadata:
    encoder : Some super fast AVI muxer
    Duration: 00:41:28.86, start: 0.000000, bitrate: 1183 kb/s
    Stream #0.0: Video: mpeg4, yuv420p, 624x352 [PAR 1:1 DAR 39:22], 23.98 tbr, 23.98 tbn, 23.98 tbc
    Stream #0.1: Audio: mp3, 48000 Hz, stereo, s16, 155 kb/s
    At least one output file must be specified


    ---> DB Level Info: -99

  4. #4
    Join Date
    Nov 2007
    Location
    Melbourne, Australia
    Posts
    11,648

    Default

    This is possibly because of an issue that exists in 2.2 with Sony BDPs. Please send a message to support (at) conceiva (dot) com for a patched version that should fix it.

    Mezzmo Android: Install it on your tablet, smartphone, Android TV or Amazon Fire to browse and stream files from your Mezzmo library to all your devices. Full details at http://www.conceiva.com/products/mez...mo_android.asp
    Mezzmo for Kodi Add-on: Install it into Kodi to stream files from your Mezzmo library directly in Kodi. Full details at http://www.mezzmo.com/wiki/doku.php?...odi_user_guide
    Mezzmo for Roku App: Install it onto your Roku to stream files from your Mezzmo library. Full details at http://www.mezzmo.com/wiki/doku.php?...oku_user_guide
    Wiki: User Guides & Reference Manual at http://www.mezzmo.com/wiki
    Facebook: http://www.facebook.com/Mezzmo.DLNA.Server
    Twitter: https://twitter.com/conceiva_mezzmo
    Web: http://www.mezzmo.com

Similar Threads

  1. Trouble - Sony BDP-S370 & FF/RW with 2.2.0.0
    By Aaron407 in forum Mezzmo Questions and Support
    Replies: 7
    Last Post: 08-10-2011, 09:18 AM
  2. MP3 Trouble on BDP-S370
    By Aaron407 in forum Mezzmo Questions and Support
    Replies: 1
    Last Post: 03-07-2011, 11:58 AM
  3. Replies: 3
    Last Post: 02-02-2011, 12:50 PM
  4. Mezzmo and Sony Bravia KDL (KDL-40Z4500) no video
    By MiniMoke in forum Mezzmo Questions and Support
    Replies: 1
    Last Post: 11-17-2010, 05:35 PM
  5. One video has sound, no video (m2ts)
    By dpetr in forum Mezzmo Questions and Support
    Replies: 1
    Last Post: 08-13-2010, 09:36 AM

Tags for this Thread

Bookmarks

Posting Permissions

  • You may not post new threads
  • You may not post replies
  • You may not post attachments
  • You may not edit your posts
  •