Results 1 to 4 of 4

Thread: MKV with Samsung C5000

  1. #1

    Default MKV with Samsung C5000

    Unable to load this MKV on my UA46C5000 using Samsung C Device Profile.

    FFmpeg version git-c3897d7, Copyright (c) 2000-2011 the FFmpeg developers
    built on Feb 28 2011 10:03:54 with gcc 4.4.2
    configuration: --enable-memalign-hack --arch=x86 --target-os=mingw32 --cross-prefix=i686-mingw32- --enable-static --disable-shared --enable-zlib --disable-ffprobe --disable-ffplay --prefix=/media/windows/ffmpeg --extra-cflags=-U__STRICT_ANSI__ --enable-libmp3lame --enable-libx264 --enable-gpl --extra-libs='-lx264 -lpthread' --enable-runtime-cpudetect
    libavutil 50. 39. 0 / 50. 39. 0
    libavcodec 52.113. 2 / 52.113. 2
    libavformat 52.102. 0 / 52.102. 0
    libavdevice 52. 2. 3 / 52. 2. 3
    libavfilter 1. 76. 0 / 1. 76. 0
    libswscale 0. 12. 0 / 0. 12. 0
    [matroska,webm @ 003ecbf0] max_analyze_duration reached
    [matroska,webm @ 003ecbf0] Estimating duration from bitrate, this may be inaccurate

    Seems stream 0 codec frame rate differs from container frame rate: 719.28 (720000/1001) -> 359.64 (720000/2002)
    Input #0, matroska,webm, from 'D:\Animes\One Piece - MarineFord arc\[yibis]_One_Piece_474_[720p][A8634AF9].mkv':
    Duration: 00:23:34.54, start: 0.000000, bitrate: N/A
    Chapter #0.0: start 0.000000, end 197.572000
    Metadata:
    title : Opening
    Chapter #0.1: start 197.572000, end 259.843000
    Metadata:
    title : Recap
    Chapter #0.2: start 259.843000, end 908.508000
    Metadata:
    title : Part 1
    Chapter #0.3: start 908.508000, end 1384.508000
    Metadata:
    title : Part 2
    Chapter #0.4: start 1384.508000, end 1414.549000
    Metadata:
    title : Preview
    Stream #0.0(jpn): Video: h264 (High), yuv420p, 1280x720, PAR 1:1 DAR 16:9, 359.64 tbr, 1k tbn, 719.28 tbc (default)
    Metadata:
    title : h.264
    Stream #0.1(jpn): Audio: aac, 48000 Hz, stereo, s16 (default)
    Metadata:
    title : aac 2ch
    Stream #0.2(eng): Subtitle: ass (default)
    Metadata:
    title : subtitles & notes
    Stream #0.3: Attachment: [0][0][0][0] / 0x0000
    Metadata:
    filename : Impress BT.ttf
    Stream #0.4: Attachment: [0][0][0][0] / 0x0000
    Metadata:
    filename : PRISTINA.TTF
    At least one output file must be specified


    ---> DB Level Info: 40

  2. #2
    Join Date
    Nov 2007
    Location
    Melbourne, Australia
    Posts
    11,641

    Default

    The frame rate on that file seems really strange - 719.28? Can you try recoding it using some video converter to a different frame rate and see if that helps?

    Mezzmo Android: Install it on your tablet, smartphone, Android TV or Amazon Fire to browse and stream files from your Mezzmo library to all your devices. Full details at http://www.conceiva.com/products/mez...mo_android.asp
    Mezzmo for Kodi Add-on: Install it into Kodi to stream files from your Mezzmo library directly in Kodi. Full details at http://www.mezzmo.com/wiki/doku.php?...odi_user_guide
    Mezzmo for Roku App: Install it onto your Roku to stream files from your Mezzmo library. Full details at http://www.mezzmo.com/wiki/doku.php?...oku_user_guide
    Wiki: User Guides & Reference Manual at http://www.mezzmo.com/wiki
    Facebook: http://www.facebook.com/Mezzmo.DLNA.Server
    Twitter: https://twitter.com/conceiva_mezzmo
    Web: http://www.mezzmo.com

  3. #3

    Default

    Any configurations to get Mezzmo to transcode the file?

  4. #4
    Join Date
    Nov 2007
    Location
    Melbourne, Australia
    Posts
    11,641

    Default

    At the moment Mezzmo does not support transcoding based on frame rates, but it's possible to force-transcode this one file by either modifying the device profile or adjusting settings in the Advanced tab for the device - let me know which you'd prefer and I'll tell you how to change it.

    Mezzmo Android: Install it on your tablet, smartphone, Android TV or Amazon Fire to browse and stream files from your Mezzmo library to all your devices. Full details at http://www.conceiva.com/products/mez...mo_android.asp
    Mezzmo for Kodi Add-on: Install it into Kodi to stream files from your Mezzmo library directly in Kodi. Full details at http://www.mezzmo.com/wiki/doku.php?...odi_user_guide
    Mezzmo for Roku App: Install it onto your Roku to stream files from your Mezzmo library. Full details at http://www.mezzmo.com/wiki/doku.php?...oku_user_guide
    Wiki: User Guides & Reference Manual at http://www.mezzmo.com/wiki
    Facebook: http://www.facebook.com/Mezzmo.DLNA.Server
    Twitter: https://twitter.com/conceiva_mezzmo
    Web: http://www.mezzmo.com

Tags for this Thread

Bookmarks

Posting Permissions

  • You may not post new threads
  • You may not post replies
  • You may not post attachments
  • You may not edit your posts
  •