Page 2 of 2 FirstFirst 12
Results 11 to 14 of 14

Thread: Mezzmo was 30% cpu now it's 100% and playback suffers?

  1. #11

    Default

    jbod.
    logs sent to support @ conceiva dot com with your name in the title.

    tv wont play anything with advanced tab on default settings

  2. #12
    Join Date
    Nov 2007
    Location
    Melbourne, Australia
    Posts
    11,646

    Default

    Thanks, I'll check the logs and get back to you via e-mail.

    Mezzmo Android: Install it on your tablet, smartphone, Android TV or Amazon Fire to browse and stream files from your Mezzmo library to all your devices. Full details at http://www.conceiva.com/products/mez...mo_android.asp
    Mezzmo for Kodi Add-on: Install it into Kodi to stream files from your Mezzmo library directly in Kodi. Full details at http://www.mezzmo.com/wiki/doku.php?...odi_user_guide
    Mezzmo for Roku App: Install it onto your Roku to stream files from your Mezzmo library. Full details at http://www.mezzmo.com/wiki/doku.php?...oku_user_guide
    Wiki: User Guides & Reference Manual at http://www.mezzmo.com/wiki
    Facebook: http://www.facebook.com/Mezzmo.DLNA.Server
    Twitter: https://twitter.com/conceiva_mezzmo
    Web: http://www.mezzmo.com

  3. #13

    Default

    Well, I decided to get a little breathing room on the cpu and switched to an i5 760 (true quad core) 2.8 with boost up to 3.8. I'm not sure if it's coinsidence or not but now all of my audio skips at the tv?

    FFmpeg version git-N-28463-gc5dcb3d, Copyright (c) 2000-2011 the FFmpeg developers
    built on Apr 20 2011 10:16:52 with gcc 4.4.2
    configuration: --enable-memalign-hack --arch=x86 --target-os=mingw32 --cross-prefix=i686-mingw32- --enable-static --disable-shared --enable-zlib --disable-ffprobe --disable-ffplay --prefix=/media/windows/ffmpeg --enable-libmp3lame --enable-libx264 --enable-gpl --extra-libs='-lx264 -lpthread' --enable-runtime-cpudetect --pkg-config=pkg-config
    libavutil 50. 40. 1 / 50. 40. 1
    libavcodec 52.120. 0 / 52.120. 0
    libavformat 52.108. 0 / 52.108. 0
    libavdevice 52. 4. 0 / 52. 4. 0
    libavfilter 1. 79. 1 / 1. 79. 1
    libswscale 0. 13. 0 / 0. 13. 0
    [matroska,webm @ 01524a80] Estimating duration from bitrate, this may be inaccurate
    Input #0, matroska,webm, from 'D:\BluRays\Unstoppable (2010)\title00.mkv':
    Duration: 01:38:30.36, start: 0.000000, bitrate: 1536 kb/s
    Chapter #0.0: start 0.000000, end 285.618667
    Metadata:
    title : Chapter 00
    Chapter #0.1: start 285.618667, end 581.455867
    Metadata:
    title : Chapter 01
    Chapter #0.2: start 581.455867, end 877.668444
    Metadata:
    title : Chapter 02
    Chapter #0.3: start 877.668444, end 1090.964867
    Metadata:
    title : Chapter 03
    Chapter #0.4: start 1090.964867, end 1258.840911
    Metadata:
    title : Chapter 04
    Chapter #0.5: start 1258.840911, end 1378.919200
    Metadata:
    title : Chapter 05
    Chapter #0.6: start 1378.919200, end 1531.363156
    Metadata:
    title : Chapter 06
    Chapter #0.7: start 1531.363156, end 1816.523022
    Metadata:
    title : Chapter 07
    Chapter #0.8: start 1816.523022, end 2038.411356
    Metadata:
    title : Chapter 08
    Chapter #0.9: start 2038.411356, end 2258.506244
    Metadata:
    title : Chapter 09
    Chapter #0.10: start 2258.506244, end 2399.105022
    Metadata:
    title : Chapter 10
    Chapter #0.11: start 2399.105022, end 2488.569400
    Metadata:
    title : Chapter 11
    Chapter #0.12: start 2488.569400, end 2796.919111
    Metadata:
    title : Chapter 12
    Chapter #0.13: start 2796.919111, end 2958.705733
    Metadata:
    title : Chapter 13
    Chapter #0.14: start 2958.705733, end 3144.933444
    Metadata:
    title : Chapter 14
    Chapter #0.15: start 3144.933444, end 3253.583667
    Metadata:
    title : Chapter 15
    Chapter #0.16: start 3253.583667, end 3524.145622
    Metadata:
    title : Chapter 16
    Chapter #0.17: start 3524.145622, end 3662.742400
    Metadata:
    title : Chapter 17
    Chapter #0.18: start 3662.742400, end 3794.290489
    Metadata:
    title : Chapter 18
    Chapter #0.19: start 3794.290489, end 4040.786733
    Metadata:
    title : Chapter 19
    Chapter #0.20: start 4040.786733, end 4200.154289
    Metadata:
    title : Chapter 20
    Chapter #0.21: start 4200.154289, end 4511.465289
    Metadata:
    title : Chapter 21
    Chapter #0.22: start 4511.465289, end 4704.533156
    Metadata:
    title : Chapter 22
    Chapter #0.23: start 4704.533156, end 4873.410200
    Metadata:
    title : Chapter 23
    Chapter #0.24: start 4873.410200, end 5093.505067
    Metadata:
    title : Chapter 24
    Chapter #0.25: start 5093.505067, end 5431.551111
    Metadata:
    title : Chapter 25
    Chapter #0.26: start 5431.551111, end 5578.864956
    Metadata:
    title : Chapter 26
    Chapter #0.27: start 5578.864956, end 5578.864956
    Metadata:
    title : Chapter 27
    Stream #0.0(eng): Video: h264 (High), yuv420p, 1920x1080 [PAR 1:1 DAR 16:9], 23.98 fps, 23.98 tbr, 1k tbn, 47.95 tbc (default)
    Stream #0.1(eng): Audio: dca (DTS-HD MA), 48000 Hz, 5.1, s16, 1536 kb/s (default)
    Metadata:
    title : Lossless
    At least one output file must be specified


    ---> DB Level Info: 41

    and

    FFmpeg version git-N-28463-gc5dcb3d, Copyright (c) 2000-2011 the FFmpeg developers
    built on Apr 20 2011 10:16:52 with gcc 4.4.2
    configuration: --enable-memalign-hack --arch=x86 --target-os=mingw32 --cross-prefix=i686-mingw32- --enable-static --disable-shared --enable-zlib --disable-ffprobe --disable-ffplay --prefix=/media/windows/ffmpeg --enable-libmp3lame --enable-libx264 --enable-gpl --extra-libs='-lx264 -lpthread' --enable-runtime-cpudetect --pkg-config=pkg-config
    libavutil 50. 40. 1 / 50. 40. 1
    libavcodec 52.120. 0 / 52.120. 0
    libavformat 52.108. 0 / 52.108. 0
    libavdevice 52. 4. 0 / 52. 4. 0
    libavfilter 1. 79. 1 / 1. 79. 1
    libswscale 0. 13. 0 / 0. 13. 0
    [matroska,webm @ 014f4a80] Estimating duration from bitrate, this may be inaccurate
    Input #0, matroska,webm, from 'D:\BluRays\Despicable Me (2010)\title00.mkv':
    Duration: 01:34:48.69, start: 0.000000, bitrate: 1536 kb/s
    Chapter #0.0: start 0.000000, end 202.410533
    Metadata:
    title : Chapter 00
    Chapter #0.1: start 202.410533, end 391.891489
    Metadata:
    title : Chapter 01
    Chapter #0.2: start 391.891489, end 725.099356
    Metadata:
    title : Chapter 02
    Chapter #0.3: start 725.099356, end 830.496333
    Metadata:
    title : Chapter 03
    Chapter #0.4: start 830.496333, end 1118.826022
    Metadata:
    title : Chapter 04
    Chapter #0.5: start 1118.826022, end 1386.843778
    Metadata:
    title : Chapter 05
    Chapter #0.6: start 1386.843778, end 1556.221333
    Metadata:
    title : Chapter 06
    Chapter #0.7: start 1556.221333, end 1840.839000
    Metadata:
    title : Chapter 07
    Chapter #0.8: start 1840.839000, end 2088.753333
    Metadata:
    title : Chapter 08
    Chapter #0.9: start 2088.753333, end 2383.047333
    Metadata:
    title : Chapter 09
    Chapter #0.10: start 2383.047333, end 2618.365733
    Metadata:
    title : Chapter 10
    Chapter #0.11: start 2618.365733, end 2899.187956
    Metadata:
    title : Chapter 11
    Chapter #0.12: start 2899.187956, end 3172.502667
    Metadata:
    title : Chapter 12
    Chapter #0.13: start 3172.502667, end 3406.111022
    Metadata:
    title : Chapter 13
    Chapter #0.14: start 3406.111022, end 3728.015956
    Metadata:
    title : Chapter 14
    Chapter #0.15: start 3728.015956, end 4163.868022
    Metadata:
    title : Chapter 15
    Chapter #0.16: start 4163.868022, end 4585.455867
    Metadata:
    title : Chapter 16
    Chapter #0.17: start 4585.455867, end 4961.581622
    Metadata:
    title : Chapter 17
    Chapter #0.18: start 4961.581622, end 5255.375111
    Metadata:
    title : Chapter 18
    Chapter #0.19: start 5255.375111, end 5255.375111
    Metadata:
    title : Chapter 19
    Stream #0.0(eng): Video: h264 (High), yuv420p, 1920x1080 [PAR 1:1 DAR 16:9], 23.98 fps, 23.98 tbr, 1k tbn, 47.95 tbc (default)
    Stream #0.1(eng): Audio: dca (DTS-HD MA), 48000 Hz, 5.1, s16, 1536 kb/s (default)
    Metadata:
    title : Lossless
    At least one output file must be specified


    ---> DB Level Info: 41

    are a couple of the movies

  4. #14
    Join Date
    Nov 2007
    Location
    Melbourne, Australia
    Posts
    11,646

    Default

    Can you please turn on logging (see this thread: http://forum.conceiva.com/showthread...nostic-logging) then try playing one of those files on the TV and once it skips, stop the server and send us the logs to support (at) conceiva (dot) com and we'll take a look.

    Mezzmo Android: Install it on your tablet, smartphone, Android TV or Amazon Fire to browse and stream files from your Mezzmo library to all your devices. Full details at http://www.conceiva.com/products/mez...mo_android.asp
    Mezzmo for Kodi Add-on: Install it into Kodi to stream files from your Mezzmo library directly in Kodi. Full details at http://www.mezzmo.com/wiki/doku.php?...odi_user_guide
    Mezzmo for Roku App: Install it onto your Roku to stream files from your Mezzmo library. Full details at http://www.mezzmo.com/wiki/doku.php?...oku_user_guide
    Wiki: User Guides & Reference Manual at http://www.mezzmo.com/wiki
    Facebook: http://www.facebook.com/Mezzmo.DLNA.Server
    Twitter: https://twitter.com/conceiva_mezzmo
    Web: http://www.mezzmo.com

Similar Threads

  1. Philips 40pfl9904 and Mezzmo - sometimes mkv doesn't playback
    By pzhivulin in forum Mezzmo Questions and Support
    Replies: 23
    Last Post: 05-19-2011, 05:33 PM

Tags for this Thread

Bookmarks

Posting Permissions

  • You may not post new threads
  • You may not post replies
  • You may not post attachments
  • You may not edit your posts
  •