Page 1 of 2 12 LastLast
Results 1 to 10 of 11

Thread: LG 55LD650 no device profile

  1. #1

    Default LG 55LD650 no device profile

    Hello,

    I am currently trying out Mezzmo with a LG 55LD650 and having issues playing video. Currently there are no LG device profile that work with this TV. Could someone please give me a link to one that works for this model?

    The "WDTVLive" device profile works with the AVI fines but the mkv get no audio. While using "SonyHT-PAL-NoDivX", I can get MKV no issues but AVI do not work.

    Thanks

  2. #2
    Join Date
    Nov 2007
    Location
    Melbourne, Australia
    Posts
    11,648

    Default

    Hello,

    Please try Samsung C or Samsung BDP and see if that works better. Let me know how that goes.

    Mezzmo Android: Install it on your tablet, smartphone, Android TV or Amazon Fire to browse and stream files from your Mezzmo library to all your devices. Full details at http://www.conceiva.com/products/mez...mo_android.asp
    Mezzmo for Kodi Add-on: Install it into Kodi to stream files from your Mezzmo library directly in Kodi. Full details at http://www.mezzmo.com/wiki/doku.php?...odi_user_guide
    Mezzmo for Roku App: Install it onto your Roku to stream files from your Mezzmo library. Full details at http://www.mezzmo.com/wiki/doku.php?...oku_user_guide
    Wiki: User Guides & Reference Manual at http://www.mezzmo.com/wiki
    Facebook: http://www.facebook.com/Mezzmo.DLNA.Server
    Twitter: https://twitter.com/conceiva_mezzmo
    Web: http://www.mezzmo.com

  3. #3

    Default

    Samsung C- AVI work 100%, MKV works but invalid sound.
    Samsung BDP- Invalid format

  4. #4
    Join Date
    Nov 2007
    Location
    Melbourne, Australia
    Posts
    11,648

    Default

    Thanks for the results. Please send a message to support (at) conceiva (dot) com and mention this thread, and I'll send you a device profile to try.

    Mezzmo Android: Install it on your tablet, smartphone, Android TV or Amazon Fire to browse and stream files from your Mezzmo library to all your devices. Full details at http://www.conceiva.com/products/mez...mo_android.asp
    Mezzmo for Kodi Add-on: Install it into Kodi to stream files from your Mezzmo library directly in Kodi. Full details at http://www.mezzmo.com/wiki/doku.php?...odi_user_guide
    Mezzmo for Roku App: Install it onto your Roku to stream files from your Mezzmo library. Full details at http://www.mezzmo.com/wiki/doku.php?...oku_user_guide
    Wiki: User Guides & Reference Manual at http://www.mezzmo.com/wiki
    Facebook: http://www.facebook.com/Mezzmo.DLNA.Server
    Twitter: https://twitter.com/conceiva_mezzmo
    Web: http://www.mezzmo.com

  5. #5

    Default

    Sent an email.

  6. #6
    Join Date
    Nov 2007
    Location
    Melbourne, Australia
    Posts
    11,648

    Default

    Thanks, I'll get back to you via e-mail.

    Mezzmo Android: Install it on your tablet, smartphone, Android TV or Amazon Fire to browse and stream files from your Mezzmo library to all your devices. Full details at http://www.conceiva.com/products/mez...mo_android.asp
    Mezzmo for Kodi Add-on: Install it into Kodi to stream files from your Mezzmo library directly in Kodi. Full details at http://www.mezzmo.com/wiki/doku.php?...odi_user_guide
    Mezzmo for Roku App: Install it onto your Roku to stream files from your Mezzmo library. Full details at http://www.mezzmo.com/wiki/doku.php?...oku_user_guide
    Wiki: User Guides & Reference Manual at http://www.mezzmo.com/wiki
    Facebook: http://www.facebook.com/Mezzmo.DLNA.Server
    Twitter: https://twitter.com/conceiva_mezzmo
    Web: http://www.mezzmo.com

  7. #7

    Default

    Thanks for the email but the device profile did not work. Invalid file format for MKV and AVI just does not load up.

    Here is some more information about the files and what they have work with.
    "WDTVLive"
    avitest1 - work 100%
    mkvtest1 - works but no sound (invalid sound)
    mkvtest2 - work 100%
    "SonyHT-PAL-NoDivX"
    avitest1 - invalid file
    mkvtest1 - work 100%
    mkvtest2 - work 100%
    "SonyHT-PAL"
    avitest1 - work 100%
    mkvtest1 - invalid file
    mkvtest2 - invalid file

    ************************************************** *******************
    FFmpeg version git-N-28463-gc5dcb3d, Copyright (c) 2000-2011 the FFmpeg developers
    built on Apr 11 2011 15:09:07 with gcc 4.4.2
    configuration: --enable-memalign-hack --arch=x86 --target-os=mingw32 --cross-prefix=i686-mingw32- --enable-static --disable-shared --enable-zlib --disable-ffprobe --disable-ffplay --prefix=/media/windows/ffmpeg --enable-libmp3lame --enable-libx264 --enable-gpl --extra-libs='-lx264 -lpthread' --enable-runtime-cpudetect --pkg-config=pkg-config
    libavutil 50. 40. 1 / 50. 40. 1
    libavcodec 52.117. 1 / 52.117. 1
    libavformat 52.106. 0 / 52.106. 0
    libavdevice 52. 4. 0 / 52. 4. 0
    libavfilter 1. 78. 0 / 1. 78. 0
    libswscale 0. 13. 0 / 0. 13. 0
    [mpeg4 @ 02ba0540] Invalid and inefficient vfw-avi packed B frames detected

    Seems stream 0 codec frame rate differs from container frame rate: 23.98 (65535/2733) -> 23.98 (24000/1001)
    Input #0, avi, from 'C:\avitest1.avi':
    Metadata:
    encoder : VirtualDubMod 1.5.10.2 (build 2542/release)
    Duration: 01:27:55.82, start: 0.000000, bitrate: 1113 kb/s
    Stream #0.0: Video: mpeg4, yuv420p, 624x352 [PAR 1:1 DAR 39:22], 23.98 tbr, 23.98 tbn, 23.98 tbc
    Stream #0.1: Audio: mp3, 48000 Hz, stereo, s16, 140 kb/s
    At least one output file must be specified


    ---> DB Level Info: -99
    ************************************************** *******************
    ************************************************** *******************
    FFmpeg version git-N-28463-gc5dcb3d, Copyright (c) 2000-2011 the FFmpeg developers
    built on Apr 11 2011 15:09:07 with gcc 4.4.2
    configuration: --enable-memalign-hack --arch=x86 --target-os=mingw32 --cross-prefix=i686-mingw32- --enable-static --disable-shared --enable-zlib --disable-ffprobe --disable-ffplay --prefix=/media/windows/ffmpeg --enable-libmp3lame --enable-libx264 --enable-gpl --extra-libs='-lx264 -lpthread' --enable-runtime-cpudetect --pkg-config=pkg-config
    libavutil 50. 40. 1 / 50. 40. 1
    libavcodec 52.117. 1 / 52.117. 1
    libavformat 52.106. 0 / 52.106. 0
    libavdevice 52. 4. 0 / 52. 4. 0
    libavfilter 1. 78. 0 / 1. 78. 0
    libswscale 0. 13. 0 / 0. 13. 0
    [matroska,webm @ 015d4a40] Estimating duration from bitrate, this may be inaccurate

    Seems stream 0 codec frame rate differs from container frame rate: 47.95 (20000000/417083) -> 23.98 (24000/1001)
    Input #0, matroska,webm, from 'C:\mkvtest1.mkv':
    Duration: 02:26:05.29, start: 0.000000, bitrate: 1536 kb/s
    Stream #0.0(eng): Video: h264 (High), yuv420p, 1920x800 [PAR 1:1 DAR 12:5], 23.98 fps, 23.98 tbr, 1k tbn, 47.95 tbc (default)
    Metadata:
    title : mkvtest1-1080p
    Stream #0.1(eng): Audio: dca (DTS), 48000 Hz, 5.1, s16, 1536 kb/s (default)
    Metadata:
    title : mkvtest1-1080p
    At least one output file must be specified


    ---> DB Level Info: 41
    ************************************************** *******************
    ************************************************** *******************
    FFmpeg version git-N-28463-gc5dcb3d, Copyright (c) 2000-2011 the FFmpeg developers
    built on Apr 11 2011 15:09:07 with gcc 4.4.2
    configuration: --enable-memalign-hack --arch=x86 --target-os=mingw32 --cross-prefix=i686-mingw32- --enable-static --disable-shared --enable-zlib --disable-ffprobe --disable-ffplay --prefix=/media/windows/ffmpeg --enable-libmp3lame --enable-libx264 --enable-gpl --extra-libs='-lx264 -lpthread' --enable-runtime-cpudetect --pkg-config=pkg-config
    libavutil 50. 40. 1 / 50. 40. 1
    libavcodec 52.117. 1 / 52.117. 1
    libavformat 52.106. 0 / 52.106. 0
    libavdevice 52. 4. 0 / 52. 4. 0
    libavfilter 1. 78. 0 / 1. 78. 0
    libswscale 0. 13. 0 / 0. 13. 0
    [matroska,webm @ 01944a40] Estimating duration from bitrate, this may be inaccurate
    Input #0, matroska,webm, from 'C:\mkvtest2.mkv':
    Duration: 00:21:48.00, start: 0.000000, bitrate: 448 kb/s
    Stream #0.0(eng): Video: h264 (High), yuv420p, 1280x720, PAR 1:1 DAR 16:9, 23.98 fps, 23.98 tbr, 1k tbn, 47.95 tbc
    Stream #0.1: Audio: ac3, 48000 Hz, 5.1, s16, 448 kb/s (default)
    At least one output file must be specified


    ---> DB Level Info: 41
    ************************************************** *******************

  8. #8
    Join Date
    Nov 2007
    Location
    Melbourne, Australia
    Posts
    11,648

    Default

    Thank you for the additional information - please e-mail support for an updated device profile based on this.

    Mezzmo Android: Install it on your tablet, smartphone, Android TV or Amazon Fire to browse and stream files from your Mezzmo library to all your devices. Full details at http://www.conceiva.com/products/mez...mo_android.asp
    Mezzmo for Kodi Add-on: Install it into Kodi to stream files from your Mezzmo library directly in Kodi. Full details at http://www.mezzmo.com/wiki/doku.php?...odi_user_guide
    Mezzmo for Roku App: Install it onto your Roku to stream files from your Mezzmo library. Full details at http://www.mezzmo.com/wiki/doku.php?...oku_user_guide
    Wiki: User Guides & Reference Manual at http://www.mezzmo.com/wiki
    Facebook: http://www.facebook.com/Mezzmo.DLNA.Server
    Twitter: https://twitter.com/conceiva_mezzmo
    Web: http://www.mezzmo.com

  9. #9

    Default

    Tested with latest profile.
    avitest1- works 100%
    mkvtest1 - invalid file
    mkvtest2 - works 100%

    I have also upload some images from the manaul about the usb video support.
    http://img821.imageshack.us/g/98852832.png/
    Last edited by a980652; 04-19-2011 at 05:49 PM.

  10. #10
    Join Date
    Nov 2007
    Location
    Melbourne, Australia
    Posts
    11,648

    Default

    Thank for the results. Is transcoding turned on or off? The "mkvtest1" file has a DTS audio stream that doesn't appear to be supported by the TV, thus the file has to be transcoded. If transcoding is on, can you please send logs of you trying to play that file to support so that we could check what's happening?

    Mezzmo Android: Install it on your tablet, smartphone, Android TV or Amazon Fire to browse and stream files from your Mezzmo library to all your devices. Full details at http://www.conceiva.com/products/mez...mo_android.asp
    Mezzmo for Kodi Add-on: Install it into Kodi to stream files from your Mezzmo library directly in Kodi. Full details at http://www.mezzmo.com/wiki/doku.php?...odi_user_guide
    Mezzmo for Roku App: Install it onto your Roku to stream files from your Mezzmo library. Full details at http://www.mezzmo.com/wiki/doku.php?...oku_user_guide
    Wiki: User Guides & Reference Manual at http://www.mezzmo.com/wiki
    Facebook: http://www.facebook.com/Mezzmo.DLNA.Server
    Twitter: https://twitter.com/conceiva_mezzmo
    Web: http://www.mezzmo.com

Similar Threads

  1. Device Profile for Mvix Ultio?
    By Spondit in forum Mezzmo Questions and Support
    Replies: 1
    Last Post: 02-15-2011, 08:03 AM
  2. Device Profile XML format
    By Mattias in forum Mezzmo Questions and Support
    Replies: 1
    Last Post: 12-13-2010, 04:25 PM
  3. Sony BDP-S570 Device Profile?
    By Reggie Devers in forum Mezzmo Questions and Support
    Replies: 1
    Last Post: 12-06-2010, 10:01 AM
  4. How to add a downloaded device profile?
    By pvanosta in forum Mezzmo Questions and Support
    Replies: 1
    Last Post: 11-05-2010, 09:56 AM
  5. Request: Device Profile Moxi HD DVR
    By kingfetty in forum Mezzmo Wish List and Feedback
    Replies: 4
    Last Post: 11-03-2010, 08:35 AM

Tags for this Thread

Bookmarks

Posting Permissions

  • You may not post new threads
  • You may not post replies
  • You may not post attachments
  • You may not edit your posts
  •