Results 1 to 4 of 4

Thread: Audio Sync Problem on PS3

  1. #1
    Join Date
    Apr 2011
    Posts
    2

    Default Audio Sync Problem on PS3

    I'm having issue's on some avi movies that I view where the audio is about a second ahead of the video. If I use Windows media player or VLC player the audio plays OK on the computer.

    I've looked at the properties of the avi file and the audio encoding is the same on files that work OK.

    Thanks,

    Bob

  2. #2
    Join Date
    Nov 2007
    Location
    Melbourne, Australia
    Posts
    11,616

    Default

    Can you please post FFmpeg information on one of those files (in Mezzmo right-click on the file and use the "Get FFmpeg Information" command) - we'll see if they're transcoded or not.

    Mezzmo Android: Install it on your tablet, smartphone, Android TV or Amazon Fire to browse and stream files from your Mezzmo library to all your devices. Full details at http://www.conceiva.com/products/mez...mo_android.asp
    Mezzmo for Kodi Add-on: Install it into Kodi to stream files from your Mezzmo library directly in Kodi. Full details at http://www.mezzmo.com/wiki/doku.php?...odi_user_guide
    Mezzmo for Roku App: Install it onto your Roku to stream files from your Mezzmo library. Full details at http://www.mezzmo.com/wiki/doku.php?...oku_user_guide
    Wiki: User Guides & Reference Manual at http://www.mezzmo.com/wiki
    Facebook: http://www.facebook.com/Mezzmo.DLNA.Server
    Twitter: https://twitter.com/conceiva_mezzmo
    Web: http://www.mezzmo.com

  3. #3
    Join Date
    Apr 2011
    Posts
    2

    Default FFmpeg version

    Dennis here's the info you requested. Thanks for the help.

    FFmpeg version git-N-28463-gc5dcb3d, Copyright (c) 2000-2011 the FFmpeg developers
    built on Apr 11 2011 15:09:07 with gcc 4.4.2
    configuration: --enable-memalign-hack --arch=x86 --target-os=mingw32 --cross-prefix=i686-mingw32- --enable-static --disable-shared --enable-zlib --disable-ffprobe --disable-ffplay --prefix=/media/windows/ffmpeg --enable-libmp3lame --enable-libx264 --enable-gpl --extra-libs='-lx264 -lpthread' --enable-runtime-cpudetect --pkg-config=pkg-config
    libavutil 50. 40. 1 / 50. 40. 1
    libavcodec 52.117. 1 / 52.117. 1
    libavformat 52.106. 0 / 52.106. 0
    libavdevice 52. 4. 0 / 52. 4. 0
    libavfilter 1. 78. 0 / 1. 78. 0
    libswscale 0. 13. 0 / 0. 13. 0
    [mp3 @ 013e91d0] Header missing

    Seems stream 0 codec frame rate differs from container frame rate: 23.98 (65535/2733) -> 23.98 (2997/125)
    Input #0, avi, from 'C:\Users\1\Downloads\Gulliver's Travels 2010.avi':
    Metadata:
    encoder : VirtualDubMod 1.5.10.2 (build 2540/release)
    Duration: 01:24:43.51, start: 0.000000, bitrate: 1155 kb/s
    Stream #0.0: Video: mpeg4, yuv420p, 640x272 [PAR 1:1 DAR 40:17], 23.98 tbr, 23.98 tbn, 23.98 tbc
    Stream #0.1: Audio: mp3, 48000 Hz, stereo, s16, 128 kb/s
    At least one output file must be specified


    ---> DB Level Info: -99

  4. #4
    Join Date
    Nov 2007
    Location
    Melbourne, Australia
    Posts
    11,616

    Default

    Can you contact us at support [at] conceiva [dot] com and we will supply you with a modified PS3 device profile that may help fix this problem.

    Mezzmo Android: Install it on your tablet, smartphone, Android TV or Amazon Fire to browse and stream files from your Mezzmo library to all your devices. Full details at http://www.conceiva.com/products/mez...mo_android.asp
    Mezzmo for Kodi Add-on: Install it into Kodi to stream files from your Mezzmo library directly in Kodi. Full details at http://www.mezzmo.com/wiki/doku.php?...odi_user_guide
    Mezzmo for Roku App: Install it onto your Roku to stream files from your Mezzmo library. Full details at http://www.mezzmo.com/wiki/doku.php?...oku_user_guide
    Wiki: User Guides & Reference Manual at http://www.mezzmo.com/wiki
    Facebook: http://www.facebook.com/Mezzmo.DLNA.Server
    Twitter: https://twitter.com/conceiva_mezzmo
    Web: http://www.mezzmo.com

Similar Threads

  1. Audio gets out of sync
    By john2095 in forum Mezzmo Questions and Support
    Replies: 10
    Last Post: 02-01-2013, 09:39 AM
  2. Audio Codec detection and transcoding problem (Mostly avi with VBR)
    By christianclavet in forum Mezzmo Questions and Support
    Replies: 1
    Last Post: 02-09-2011, 08:57 AM
  3. Samsung BDP: Ac3 audio problem on some files
    By ludo15 in forum Mezzmo Questions and Support
    Replies: 4
    Last Post: 01-05-2011, 12:45 PM
  4. Samsung PN50B860 audio sync issues
    By pistilpete in forum Mezzmo Questions and Support
    Replies: 1
    Last Post: 01-04-2011, 11:36 AM
  5. Transcoding video problem? DSM-320 drops audio and freezes momentarily.
    By Comex in forum Mezzmo Questions and Support
    Replies: 4
    Last Post: 11-04-2010, 08:46 AM

Tags for this Thread

Bookmarks

Posting Permissions

  • You may not post new threads
  • You may not post replies
  • You may not post attachments
  • You may not edit your posts
  •