Results 1 to 2 of 2

Thread: Movie Won't play on PS3

  1. #1
    Join Date
    May 2011
    Posts
    1

    Default Movie Won't play on PS3

    Here is my log:


    FFmpeg version git-N-28463-gc5dcb3d, Copyright (c) 2000-2011 the FFmpeg developers
    built on Apr 20 2011 10:16:52 with gcc 4.4.2
    configuration: --enable-memalign-hack --arch=x86 --target-os=mingw32 --cross-prefix=i686-mingw32- --enable-static --disable-shared --enable-zlib --disable-ffprobe --disable-ffplay --prefix=/media/windows/ffmpeg --enable-libmp3lame --enable-libx264 --enable-gpl --extra-libs='-lx264 -lpthread' --enable-runtime-cpudetect --pkg-config=pkg-config
    libavutil 50. 40. 1 / 50. 40. 1
    libavcodec 52.120. 0 / 52.120. 0
    libavformat 52.108. 0 / 52.108. 0
    libavdevice 52. 4. 0 / 52. 4. 0
    libavfilter 1. 79. 1 / 1. 79. 1
    libswscale 0. 13. 0 / 0. 13. 0

    Seems stream 0 codec frame rate differs from container frame rate: 47.95 (66893/1395) -> 23.98 (66893/2790)
    Input #0, mov,mp4,m4a,3gp,3g2,mj2, from 'G:\!!Favorites Done Saved!!\Back To The Future Trilogy\Back To The Future Part III - 1990 - MP4.mp4':
    Metadata:
    major_brand : isom
    minor_version : 1
    compatible_brands: isom
    creation_time : 2010-10-27 01:51:49
    Duration: 01:58:24.83, start: 0.000000, bitrate: 2666 kb/s
    Stream #0.0(und): Video: h264 (High), yuv420p, 1280x694 [PAR 1:1 DAR 640:347], 2248 kb/s, 23.98 fps, 23.98 tbr, 66893 tbn, 47.95 tbc
    Metadata:
    creation_time : 2010-10-26 00:16:45
    Stream #0.1(eng): Audio: aac, 48000 Hz, 5.1, s16, 414 kb/s
    Metadata:
    creation_time : 2010-10-27 01:54:04
    At least one output file must be specified


    ---> DB Level Info: 41

  2. #2
    Join Date
    Nov 2007
    Location
    Melbourne, Australia
    Posts
    11,616

    Default

    Is transcoding turned on or off? That file should be transcoded.

    Please send a message to support (at) conceiva (dot) com and we'll send you an updated device profile for the PS3 that we've working on and also a patched FFmpeg and server.

    Mezzmo Android: Install it on your tablet, smartphone, Android TV or Amazon Fire to browse and stream files from your Mezzmo library to all your devices. Full details at http://www.conceiva.com/products/mez...mo_android.asp
    Mezzmo for Kodi Add-on: Install it into Kodi to stream files from your Mezzmo library directly in Kodi. Full details at http://www.mezzmo.com/wiki/doku.php?...odi_user_guide
    Mezzmo for Roku App: Install it onto your Roku to stream files from your Mezzmo library. Full details at http://www.mezzmo.com/wiki/doku.php?...oku_user_guide
    Wiki: User Guides & Reference Manual at http://www.mezzmo.com/wiki
    Facebook: http://www.facebook.com/Mezzmo.DLNA.Server
    Twitter: https://twitter.com/conceiva_mezzmo
    Web: http://www.mezzmo.com

Similar Threads

  1. Movie stops
    By Dovvan in forum Mezzmo Questions and Support
    Replies: 3
    Last Post: 03-20-2011, 11:09 PM
  2. Movie doesn't play.
    By Josip in forum Mezzmo Questions and Support
    Replies: 12
    Last Post: 01-18-2011, 02:02 PM
  3. Ant Movie Catalog
    By MarioRossi in forum Mezzmo Questions and Support
    Replies: 3
    Last Post: 12-10-2010, 09:42 AM
  4. Evaluating Mezzmo - Won't play avi movie
    By harry_fine in forum Mezzmo Questions and Support
    Replies: 15
    Last Post: 12-09-2010, 08:57 AM
  5. Movie Genre's
    By kermtfrg in forum Mezzmo Questions and Support
    Replies: 1
    Last Post: 11-24-2010, 01:21 PM

Tags for this Thread

Bookmarks

Posting Permissions

  • You may not post new threads
  • You may not post replies
  • You may not post attachments
  • You may not edit your posts
  •