Results 1 to 2 of 2

Thread: vob's not being displayed full screen

  1. #1
    Join Date
    May 2011
    Posts
    1

    Default vob's not being displayed full screen

    trying watch a vob on a PS3 connected to a 1080p projector. The movie plays fine, with the exception that it isn't full screen. There are black bars both horizontally and vertically. Is there anyway to get this to display the same size as it would if I were playing directly from DVD?

    If it helps, here is the info on one of the vob's of tried:

    FFmpeg version git-N-28463-gc5dcb3d, Copyright (c) 2000-2011 the FFmpeg developers
    built on Apr 20 2011 10:16:52 with gcc 4.4.2
    configuration: --enable-memalign-hack --arch=x86 --target-os=mingw32 --cross-prefix=i686-mingw32- --enable-static --disable-shared --enable-zlib --disable-ffprobe --disable-ffplay --prefix=/media/windows/ffmpeg --enable-libmp3lame --enable-libx264 --enable-gpl --extra-libs='-lx264 -lpthread' --enable-runtime-cpudetect --pkg-config=pkg-config
    libavutil 50. 40. 1 / 50. 40. 1
    libavcodec 52.120. 0 / 52.120. 0
    libavformat 52.108. 0 / 52.108. 0
    libavdevice 52. 4. 0 / 52. 4. 0
    libavfilter 1. 79. 1 / 1. 79. 1
    libswscale 0. 13. 0 / 0. 13. 0
    [mpeg @ 00394a30] max_analyze_duration reached

    Seems stream 0 codec frame rate differs from container frame rate: 59.94 (60000/1001) -> 59.94 (60000/1001)
    Input #0, mpeg, from 'M:\\007 - Casino Royale\MainMovie\CASINO_ROYALE\VIDEO_TS\007 - Casino Royale.vob':
    Duration: 02:24:10.84, start: 92.364678, bitrate: 5875 kb/s
    Stream #0.0[0x1e0]: Video: mpeg2video (Main), yuv420p, 720x480 [PAR 32:27 DAR 16:9], 9800 kb/s, 26.09 fps, 59.94 tbr, 90k tbn, 59.94 tbc
    Stream #0.1[0x80]: Audio: ac3, 48000 Hz, 5.1, s16, 448 kb/s
    At least one output file must be specified


    ---> DB Level Info: 8

  2. #2
    Join Date
    Nov 2007
    Location
    Melbourne, Australia
    Posts
    11,616

    Default

    That file looks like a native one, so Mezzmo should not be transcoding it. If that's the case, then it's just delivered to the PS3 as-is and it's up to the PS3 or the projector to scale it properly. Try different zoom/scale modes on the PS3 and the projector and see if any of them work.

    Mezzmo Android: Install it on your tablet, smartphone, Android TV or Amazon Fire to browse and stream files from your Mezzmo library to all your devices. Full details at http://www.conceiva.com/products/mez...mo_android.asp
    Mezzmo for Kodi Add-on: Install it into Kodi to stream files from your Mezzmo library directly in Kodi. Full details at http://www.mezzmo.com/wiki/doku.php?...odi_user_guide
    Mezzmo for Roku App: Install it onto your Roku to stream files from your Mezzmo library. Full details at http://www.mezzmo.com/wiki/doku.php?...oku_user_guide
    Wiki: User Guides & Reference Manual at http://www.mezzmo.com/wiki
    Facebook: http://www.facebook.com/Mezzmo.DLNA.Server
    Twitter: https://twitter.com/conceiva_mezzmo
    Web: http://www.mezzmo.com

Similar Threads

  1. Full on 64bit Version
    By armstrn2 in forum Mezzmo Wish List and Feedback
    Replies: 11
    Last Post: 02-23-2013, 07:44 PM
  2. Maximum Screen Resolution - Streaming vs Transcoding
    By Aaron407 in forum Mezzmo Questions and Support
    Replies: 4
    Last Post: 07-01-2011, 08:41 AM
  3. Sony KDL-55HX701 Screen Resolution
    By jball in forum Mezzmo Questions and Support
    Replies: 1
    Last Post: 09-06-2010, 11:58 AM
  4. I need to change from full hd to 720x406 in transcoding.
    By Comancheace in forum Mezzmo Questions and Support
    Replies: 58
    Last Post: 07-26-2010, 09:05 AM
  5. Black Screen
    By tremaine in forum DownloadStudio Questions and Support
    Replies: 2
    Last Post: 10-07-2009, 12:11 PM

Tags for this Thread

Bookmarks

Posting Permissions

  • You may not post new threads
  • You may not post replies
  • You may not post attachments
  • You may not edit your posts
  •