Results 1 to 2 of 2

Thread: Mezzmo, PS3, BDP-S570 and MKV2VOB files

  1. #1
    Join Date
    May 2011
    Posts
    3

    Thumbs up Mezzmo, PS3, BDP-S570 and MKV2VOB files

    So far, very impressed with Mezzmo, and I think I'm about to drop 40.00 US on the package, but I hoping that I can get some help adjusting my PS3 profile to assist in a problem I am having.

    To make a long story folk, I started to make MKV copies of my DVD library with the realization that I would then have to remux to my PS3 and/or BDP-S570 since I am using WHS 2011 which has a DLNA compliant server. Unfortunately the WHS 2011 DLNA server when accessed via the BDP-S570 looks terrible with upscaling pixalation that makes viewing terrible.

    Luckily I found Mezzmo. With your excellent profiles and on the fly transcoding, my MKV's play wonderfully on both my PS3 and BDP-S570. Now here comes the problem,
    I have a ton of MKV2VOB remuxed mpg files that utilized the 'patched dts' LPCM 2 channel passthrough hack to allow DTS audio to play via the PS3's HDMI to my audio receiver.

    FFMPEG shows the LPCM 2 channels as 'pcm_blueray'. Sample FFMPEG properties:

    FFmpeg version git-N-28463-gc5dcb3d, Copyright (c) 2000-2011 the FFmpeg developers
    built on Apr 20 2011 10:16:52 with gcc 4.4.2
    configuration: --enable-memalign-hack --arch=x86 --target-os=mingw32 --cross-prefix=i686-mingw32- --enable-static --disable-shared --enable-zlib --disable-ffprobe --disable-ffplay --prefix=/media/windows/ffmpeg --enable-libmp3lame --enable-libx264 --enable-gpl --extra-libs='-lx264 -lpthread' --enable-runtime-cpudetect --pkg-config=pkg-config
    libavutil 50. 40. 1 / 50. 40. 1
    libavcodec 52.120. 0 / 52.120. 0
    libavformat 52.108. 0 / 52.108. 0
    libavdevice 52. 4. 0 / 52. 4. 0
    libavfilter 1. 79. 1 / 1. 79. 1
    libswscale 0. 13. 0 / 0. 13. 0
    [mpegts @ 00334b60] max_analyze_duration reached
    Input #0, mpegts, from 'D:\ServerFolders\Videos\Sample\Sample-1080p.mpg':
    Duration: 02:58:09.48, start: 599.958300, bitrate: 12875 kb/s
    Program 1
    Stream #0.0[0x1011]: Video: h264 (High), yuv420p, 1920x1080 [PAR 1:1 DAR 16:9], 23.98 fps, 23.98 tbr, 90k tbn, 47.95 tbc
    Stream #0.1[0x1100]: Audio: pcm_bluray, 48000 Hz, stereo, s16, 1536 kb/s
    At least one output file must be specified


    ---> DB Level Info: 41

    These files do not play through Mezzmo's built in PS3 profile with transcoding enabled using the default settings. However, if transcoding is universally disabled on the PS3 profile, Mezzmo successfully passes the LPCM bitstream through the PS3 to enable DTS through HDMI to my receiver.

    What I am hoping for is a PS3 profile modification that will allow these .mpg files the ability to be streamed 'untouched' to the PS3, while still transcoding the MKV's (which convert the DTS track if applicable to AC3).

    Down the road, it may be possible for Mezzmo to incorporate the same "LPCM" push to enable DTS encoded MKV's to function on the fly. MKV2VOB usually takes only 20 to 30 seconds to make the necessary container adjustments prior to muxing. Something to think about.

    As for the BDP-S570, I understand that these MKV2VOB files will not function do to the LPCM track not being a codec recognized. No worries there.

    Thanks in advance!

    Grymmie (A future Mezzmo customer, hopefully)

  2. #2
    Join Date
    Nov 2007
    Location
    Melbourne, Australia
    Posts
    11,616

    Default

    Sure - we'll add this to the device profile for the PS3 that'll be included in the upcoming 2.3.2 update. Thanks for the info!

    Mezzmo Android: Install it on your tablet, smartphone, Android TV or Amazon Fire to browse and stream files from your Mezzmo library to all your devices. Full details at http://www.conceiva.com/products/mez...mo_android.asp
    Mezzmo for Kodi Add-on: Install it into Kodi to stream files from your Mezzmo library directly in Kodi. Full details at http://www.mezzmo.com/wiki/doku.php?...odi_user_guide
    Mezzmo for Roku App: Install it onto your Roku to stream files from your Mezzmo library. Full details at http://www.mezzmo.com/wiki/doku.php?...oku_user_guide
    Wiki: User Guides & Reference Manual at http://www.mezzmo.com/wiki
    Facebook: http://www.facebook.com/Mezzmo.DLNA.Server
    Twitter: https://twitter.com/conceiva_mezzmo
    Web: http://www.mezzmo.com

Similar Threads

  1. Version 2.2.0.0 and Sony BDP-S570
    By Gavhowe in forum Mezzmo Questions and Support
    Replies: 5
    Last Post: 03-07-2011, 05:01 PM
  2. Sony BDP-S570 - MKV Files will not Fast forward
    By dmbware in forum Mezzmo Questions and Support
    Replies: 1
    Last Post: 02-04-2011, 03:23 PM
  3. Sony bdp-s570 profile????
    By leoji in forum Mezzmo Questions and Support
    Replies: 1
    Last Post: 01-17-2011, 02:53 PM
  4. Sony BDP-S570 Device Profile?
    By Reggie Devers in forum Mezzmo Questions and Support
    Replies: 1
    Last Post: 12-06-2010, 11:01 AM
  5. Newbie help - BDP-S570
    By SteveK in forum Mezzmo Questions and Support
    Replies: 5
    Last Post: 11-29-2010, 09:54 AM

Tags for this Thread

Bookmarks

Posting Permissions

  • You may not post new threads
  • You may not post replies
  • You may not post attachments
  • You may not edit your posts
  •