Results 1 to 4 of 4

Thread: MTS transcoding issue

  1. #1
    Join Date
    May 2011
    Posts
    2

    Default MTS transcoding issue

    I have a Samsung PS58C7000 and am trying to play MTS files from a sony digital camera.

    I have tried both the Samsung C and Samsung D profiles and have the following issue.

    On the C profile the files says unsupported format, on the D profie is plays the file but it is completely choppy video and sound unwatchable.

    I would love to use this product to transcode the files on the fly so I can view them on the TV.

    Is this possible? and if so what changes do I need to make the the device profile in order for this to happen.

    Any help would be much appreciated.

    FFMpeg details of video I am trying to play are.

    ffmpeg version git-N-30186-gd9d5603, Copyright (c) 2000-2011 the FFmpeg developers
    built on May 25 2011 12:16:07 with gcc 4.4.2
    configuration: --enable-memalign-hack --arch=x86 --target-os=mingw32 --cross-prefix=i686-mingw32- --enable-static --disable-shared --enable-zlib --disable-ffprobe --disable-ffplay --prefix=/media/windows/ffmpeg --enable-libmp3lame --enable-libx264 --enable-gpl --extra-libs='-lx264 -lpthread' --enable-runtime-cpudetect --pkg-config=pkg-config
    libavutil 51. 2. 1 / 51. 2. 1
    libavcodec 53. 6. 0 / 53. 6. 0
    libavformat 53. 2. 0 / 53. 2. 0
    libavdevice 53. 0. 0 / 53. 0. 0
    libavfilter 2. 10. 0 / 2. 10. 0
    libswscale 0. 14. 0 / 0. 14. 0
    libpostproc 51. 2. 0 / 51. 2. 0

    Seems stream 0 codec frame rate differs from container frame rate: 50.00 (50/1) -> 50.00 (50/1)
    Input #0, mpegts, from 'B:\Videos\Home Movies\09-01-11-15-02-11\00000.mts':
    Duration: 00:01:11.27, start: 1.000033, bitrate: 16187 kb/s
    Program 1
    Stream #0.0[0x1011]: Video: h264 (Main), yuv420p, 1440x1080 [PAR 4:3 DAR 16:9], 50 fps, 50 tbr, 90k tbn, 50 tbc
    Stream #0.1[0x1100]: Audio: ac3, 48000 Hz, 5.1, s16, 448 kb/s
    At least one output file must be specified


    ---> DB Level Info: 40

  2. #2
    Join Date
    Nov 2007
    Location
    Melbourne, Australia
    Posts
    11,616

    Default

    Can you please turn on logging (see this FAQ: http://forum.conceiva.com/showthread...nostic-logging) and try to play the file again that you are having issues with. Then stop the Mezzmo media server and send us all the log files to support [at] conceiva [dot] com.

    Mezzmo Android: Install it on your tablet, smartphone, Android TV or Amazon Fire to browse and stream files from your Mezzmo library to all your devices. Full details at http://www.conceiva.com/products/mez...mo_android.asp
    Mezzmo for Kodi Add-on: Install it into Kodi to stream files from your Mezzmo library directly in Kodi. Full details at http://www.mezzmo.com/wiki/doku.php?...odi_user_guide
    Mezzmo for Roku App: Install it onto your Roku to stream files from your Mezzmo library. Full details at http://www.mezzmo.com/wiki/doku.php?...oku_user_guide
    Wiki: User Guides & Reference Manual at http://www.mezzmo.com/wiki
    Facebook: http://www.facebook.com/Mezzmo.DLNA.Server
    Twitter: https://twitter.com/conceiva_mezzmo
    Web: http://www.mezzmo.com

  3. #3
    Join Date
    May 2011
    Posts
    2

    Default Done

    Paul

    I have forwarded the information requested to the email address you specified.

    Please let me know this products seems great and I would love to use it if I can overcome this hurdle.

  4. #4
    Join Date
    Nov 2007
    Location
    Melbourne, Australia
    Posts
    11,616

    Default

    Got your email. We will check your log files and get back to you via email.

    Mezzmo Android: Install it on your tablet, smartphone, Android TV or Amazon Fire to browse and stream files from your Mezzmo library to all your devices. Full details at http://www.conceiva.com/products/mez...mo_android.asp
    Mezzmo for Kodi Add-on: Install it into Kodi to stream files from your Mezzmo library directly in Kodi. Full details at http://www.mezzmo.com/wiki/doku.php?...odi_user_guide
    Mezzmo for Roku App: Install it onto your Roku to stream files from your Mezzmo library. Full details at http://www.mezzmo.com/wiki/doku.php?...oku_user_guide
    Wiki: User Guides & Reference Manual at http://www.mezzmo.com/wiki
    Facebook: http://www.facebook.com/Mezzmo.DLNA.Server
    Twitter: https://twitter.com/conceiva_mezzmo
    Web: http://www.mezzmo.com

Similar Threads

  1. Config Issue ?
    By quigong in forum DownloadStudio Questions and Support
    Replies: 3
    Last Post: 05-27-2011, 07:33 AM
  2. Samsung Issue. Need help.
    By adrianv in forum Mezzmo Questions and Support
    Replies: 4
    Last Post: 04-18-2011, 09:10 AM
  3. Issue with ver 2.3
    By Quinntum in forum Mezzmo Questions and Support
    Replies: 6
    Last Post: 04-16-2011, 03:48 AM
  4. Transcoding issue with WMA Lossless (0x0163)
    By BruTen in forum Mezzmo Questions and Support
    Replies: 3
    Last Post: 01-12-2011, 11:42 AM
  5. XBOX 360 Issue
    By Namdam in forum Mezzmo Questions and Support
    Replies: 3
    Last Post: 05-10-2010, 12:53 PM

Tags for this Thread

Bookmarks

Posting Permissions

  • You may not post new threads
  • You may not post replies
  • You may not post attachments
  • You may not edit your posts
  •