Page 1 of 2 12 LastLast
Results 1 to 10 of 15

Thread: no DTS with 2.4 by Sony

  1. #1
    Join Date
    Mar 2011
    Posts
    32

    Default no DTS with 2.4 by Sony

    Hello,

    I have installed the current version. All files with DTS do not work any more. With version 2.3.2 no problem at Sony BDP S470

  2. #2
    Join Date
    Nov 2007
    Location
    Melbourne, Australia
    Posts
    11,616

    Default

    Hello,

    Can you please post FFmpeg information on one such file (in Mezzmo right-click on the file and use the "Get FFmpeg Information" command) and we'll check it here.

    Also, please let me know which device profile you're using.
    Last edited by Paul; 07-27-2011 at 10:11 AM.

    Mezzmo Android: Install it on your tablet, smartphone, Android TV or Amazon Fire to browse and stream files from your Mezzmo library to all your devices. Full details at http://www.conceiva.com/products/mez...mo_android.asp
    Mezzmo for Kodi Add-on: Install it into Kodi to stream files from your Mezzmo library directly in Kodi. Full details at http://www.mezzmo.com/wiki/doku.php?...odi_user_guide
    Mezzmo for Roku App: Install it onto your Roku to stream files from your Mezzmo library. Full details at http://www.mezzmo.com/wiki/doku.php?...oku_user_guide
    Wiki: User Guides & Reference Manual at http://www.mezzmo.com/wiki
    Facebook: http://www.facebook.com/Mezzmo.DLNA.Server
    Twitter: https://twitter.com/conceiva_mezzmo
    Web: http://www.mezzmo.com

  3. #3
    Join Date
    Mar 2011
    Posts
    32

    Default

    Hello Denis,
    Mezzmo 2.4 does not recognize any DTS audio track in m2ts and does not play the video.
    Have already ffmpeg and the profiles swapped with older versions (SonyKDL, SonyBDPPal). I have upgrade to 2.3.2.0 works perfectly with DTS tracks and Sony BDPS470

    ffmpeg version N-31627-g9c2651a, Copyright (c) 2000-2011 the FFmpeg developers
    built on Jul 23 2011 15:02:13 with gcc 4.6.1
    configuration: --enable-gpl --enable-version3 --enable-memalign-hack --enable-runtime-cpudetect --enable-avisynth --enable-bzlib --enable-frei0r --enable-libopencore-amrnb --enable-libopencore-amrwb --enable-libfreetype --enable-libgsm --enable-libmp3lame --enable-libopenjpeg --enable-librtmp --enable-libschroedinger --enable-libspeex --enable-libtheora --enable-libvorbis --enable-libvpx --enable-libx264 --enable-libxavs --enable-libxvid --enable-zlib
    libavutil 51. 11. 0 / 51. 11. 0
    libavcodec 53. 9. 0 / 53. 9. 0
    libavformat 53. 6. 0 / 53. 6. 0
    libavdevice 53. 2. 0 / 53. 2. 0
    libavfilter 2. 27. 3 / 2. 27. 3
    libswscale 2. 0. 0 / 2. 0. 0
    libpostproc 51. 2. 0 / 51. 2. 0
    [mpegts @ 01A29BE0] max_analyze_duration 5000000 reached at 5002667
    Input #0, mpegts, from 'F:\Video\3D Filme\00000.m2ts':
    Duration: 02:05:08.71, start: 599.958300, bitrate: 14008 kb/s
    Program 1
    Stream #0.0[0x1011](ger): Video: h264 (High), yuv420p, 1920x1080, 23.98 fps, 23.98 tbr, 90k tbn, 47.95 tbc
    Stream #0.1[0x1100](ger): Audio: ac3, 48000 Hz, 5.1, s16, 448 kb/s
    Stream #0.2[0x1101](ger): Audio: dca (DTS), 48000 Hz, 5.1, s16, 1536 kb/s
    At least one output file must be specified


    ---> DB Level Info: 41

  4. #4
    Join Date
    Nov 2007
    Location
    Melbourne, Australia
    Posts
    11,616

    Default

    Hello,

    Such files should be passed through natively to the device in 2.3.2 and 2.4, so I'm not sure what the difference is (using either the Sony Bravia KDL or Sony BDP device profiles).

    Does 2.4 try to transcode this or does it pass through as well? What happens when you use 2.3.2? They should behave in the same manner for that file.

    Mezzmo Android: Install it on your tablet, smartphone, Android TV or Amazon Fire to browse and stream files from your Mezzmo library to all your devices. Full details at http://www.conceiva.com/products/mez...mo_android.asp
    Mezzmo for Kodi Add-on: Install it into Kodi to stream files from your Mezzmo library directly in Kodi. Full details at http://www.mezzmo.com/wiki/doku.php?...odi_user_guide
    Mezzmo for Roku App: Install it onto your Roku to stream files from your Mezzmo library. Full details at http://www.mezzmo.com/wiki/doku.php?...oku_user_guide
    Wiki: User Guides & Reference Manual at http://www.mezzmo.com/wiki
    Facebook: http://www.facebook.com/Mezzmo.DLNA.Server
    Twitter: https://twitter.com/conceiva_mezzmo
    Web: http://www.mezzmo.com

  5. #5
    Join Date
    Mar 2011
    Posts
    32

    Default

    Hello Dennis,

    this Log file was with 2.3.2.0 and more currently ffmpeg. Install 2.4 and delete all transcoded files today.
    What has been changed here? New: Support for .DTS audio files

  6. #6
    Join Date
    Nov 2007
    Location
    Melbourne, Australia
    Posts
    11,616

    Default

    Quote Originally Posted by steve12 View Post
    What has been changed here? New: Support for .DTS audio files
    This simply means we now add audio files with .dts extension when scanning folders. It is not related to DTS audio track in video files in any way.

    Mezzmo Android: Install it on your tablet, smartphone, Android TV or Amazon Fire to browse and stream files from your Mezzmo library to all your devices. Full details at http://www.conceiva.com/products/mez...mo_android.asp
    Mezzmo for Kodi Add-on: Install it into Kodi to stream files from your Mezzmo library directly in Kodi. Full details at http://www.mezzmo.com/wiki/doku.php?...odi_user_guide
    Mezzmo for Roku App: Install it onto your Roku to stream files from your Mezzmo library. Full details at http://www.mezzmo.com/wiki/doku.php?...oku_user_guide
    Wiki: User Guides & Reference Manual at http://www.mezzmo.com/wiki
    Facebook: http://www.facebook.com/Mezzmo.DLNA.Server
    Twitter: https://twitter.com/conceiva_mezzmo
    Web: http://www.mezzmo.com

  7. #7
    Join Date
    Mar 2011
    Posts
    32

    Default

    Have direct 2.4 installed. DTS is not recognized in the m2ts file!

    A current log here:
    ffmpeg version N-31558-g47b71ee, Copyright (c) 2000-2011 the FFmpeg developers
    built on Jul 19 2011 11:59:21 with gcc 4.4.2
    configuration: --enable-memalign-hack --arch=x86 --target-os=mingw32 --cross-prefix=i686-mingw32- --enable-static --disable-shared --enable-zlib --disable-ffplay --prefix=/media/windows/ffmpeg --enable-libmp3lame --enable-libx264 --enable-gpl --extra-libs='-lx264 -lpthread' --enable-runtime-cpudetect --pkg-config=pkg-config
    libavutil 51. 11. 0 / 51. 11. 0
    libavcodec 53. 8. 0 / 53. 8. 0
    libavformat 53. 6. 0 / 53. 6. 0
    libavdevice 53. 2. 0 / 53. 2. 0
    libavfilter 2. 27. 0 / 2. 27. 0
    libswscale 2. 0. 0 / 2. 0. 0
    libpostproc 51. 2. 0 / 51. 2. 0
    Input #0, mpegts, from 'F:\Video\3D Filme\00.m2ts':
    Duration: 02:41:41.73, start: 599.958300, bitrate: 14542 kb/s
    Program 1
    Stream #0.0[0x1011](und): Video: h264 (High), yuv420p, 1920x1080, 23.98 fps, 23.98 tbr, 90k tbn, 47.95 tbc
    Stream #0.1[0x1100](ger): Audio: ac3, 48000 Hz, 5.1, s16, 640 kb/s
    Stream #0.2[0x1101](ger): Audio: dca (DTS), 48000 Hz, 5.1, s16, 1536 kb/s
    Stream #0.3[0x1102](eng): Audio: dca (DTS), 48000 Hz, 5.1, s16, 1536 kb/s
    At least one output file must be specified


    ---> DB Level Info: 40, 0
    ---> Frame rate:
    ---> Aspect ratio:

  8. #8
    Join Date
    Nov 2007
    Location
    Melbourne, Australia
    Posts
    11,616

    Default

    Mezzmo only uses the first video and the first audio tracks in the file at the moment (this is how it has always been, so no changes here). A future version of Mezzmo will let you choose which tracks to play, but at the moment you'll need to take out the unneeded tracks by remuxing the file manually (if you want the DTS track to play instead of the AC3).

    Some devices will also let you choose tracks in file that contain multiple tracks, so see if there's any menu while you're playing the file that lets you do that (since we're passing the file through natively, all tracks are delivered to the device).

    Mezzmo Android: Install it on your tablet, smartphone, Android TV or Amazon Fire to browse and stream files from your Mezzmo library to all your devices. Full details at http://www.conceiva.com/products/mez...mo_android.asp
    Mezzmo for Kodi Add-on: Install it into Kodi to stream files from your Mezzmo library directly in Kodi. Full details at http://www.mezzmo.com/wiki/doku.php?...odi_user_guide
    Mezzmo for Roku App: Install it onto your Roku to stream files from your Mezzmo library. Full details at http://www.mezzmo.com/wiki/doku.php?...oku_user_guide
    Wiki: User Guides & Reference Manual at http://www.mezzmo.com/wiki
    Facebook: http://www.facebook.com/Mezzmo.DLNA.Server
    Twitter: https://twitter.com/conceiva_mezzmo
    Web: http://www.mezzmo.com

  9. #9
    Join Date
    Mar 2011
    Posts
    32

    Default

    Hello Dennis,

    thank you for the support. I have upgrade to 2.3.2.0 this version work perfectly for me!

  10. #10
    Join Date
    Nov 2007
    Location
    Melbourne, Australia
    Posts
    11,616

    Default

    Quote Originally Posted by steve12 View Post
    Hello Dennis,

    thank you for the support. I have upgrade to 2.3.2.0 this version work perfectly for me!
    Hello Steve,

    Can you please confirm that you went back (downgraded) to 2.3.2 and it sends the same file using the same profile to the device differently?

    If you turn off transcoding in 2.4, do these files play ok?

    If you wish, please send a message to support (at) conceiva (dot) com and we'll continue via e-mail (if it's easier), as I could then send you some device profiles updates to try on your system (with Mezzmo 2.4 installed).

    Mezzmo Android: Install it on your tablet, smartphone, Android TV or Amazon Fire to browse and stream files from your Mezzmo library to all your devices. Full details at http://www.conceiva.com/products/mez...mo_android.asp
    Mezzmo for Kodi Add-on: Install it into Kodi to stream files from your Mezzmo library directly in Kodi. Full details at http://www.mezzmo.com/wiki/doku.php?...odi_user_guide
    Mezzmo for Roku App: Install it onto your Roku to stream files from your Mezzmo library. Full details at http://www.mezzmo.com/wiki/doku.php?...oku_user_guide
    Wiki: User Guides & Reference Manual at http://www.mezzmo.com/wiki
    Facebook: http://www.facebook.com/Mezzmo.DLNA.Server
    Twitter: https://twitter.com/conceiva_mezzmo
    Web: http://www.mezzmo.com

Similar Threads

  1. Poor MKV Playback on both Sony Bravia TV and Sony BluRay
    By JamboUK in forum Mezzmo Questions and Support
    Replies: 19
    Last Post: 02-11-2011, 09:06 AM
  2. Sony KDL Bravia TV - Sony Lyrics
    By JamboUK in forum Mezzmo Questions and Support
    Replies: 1
    Last Post: 07-08-2010, 10:03 AM

Tags for this Thread

Bookmarks

Posting Permissions

  • You may not post new threads
  • You may not post replies
  • You may not post attachments
  • You may not edit your posts
  •