Results 1 to 2 of 2

Thread: Cannot Read File

  1. #1
    Join Date
    Aug 2011
    Posts
    2

    Thumbs up Cannot Read File

    I've just purchased Mezzmo after using the trial btw love the ease of the program, just cant get my NCIS LA series to run of course its the cannot read file issue. Now after reading the previous posts ive got the info you guys require

    Code:
    ffmpeg version N-31558-g47b71ee, Copyright (c) 2000-2011 the FFmpeg developers
      built on Jul 19 2011 11:59:21 with gcc 4.4.2
      configuration: --enable-memalign-hack --arch=x86 --target-os=mingw32 --cross-prefix=i686-mingw32- --enable-static --disable-shared --enable-zlib --disable-ffplay --prefix=/media/windows/ffmpeg --enable-libmp3lame --enable-libx264 --enable-gpl --extra-libs='-lx264 -lpthread' --enable-runtime-cpudetect --pkg-config=pkg-config
      libavutil    51. 11. 0 / 51. 11. 0
      libavcodec   53.  8. 0 / 53.  8. 0
      libavformat  53.  6. 0 / 53.  6. 0
      libavdevice  53.  2. 0 / 53.  2. 0
      libavfilter   2. 27. 0 /  2. 27. 0
      libswscale    2.  0. 0 /  2.  0. 0
      libpostproc  51.  2. 0 / 51.  2. 0
    
    Seems stream 0 codec frame rate differs from container frame rate: 23.98 (65535/2733) -> 23.98 (2997003/125000)
    Input #0, avi, from 'C:\Users\Jarrad\Downloads\Music\NCIS LA Season 2\NCIS.Los.Angeles.S02E02.HDTV.XviD-LOL.[VTV].Black.Widow.avi':
      Metadata:
        encoder         : transcode-1.0.6
      Duration: 00:43:21.74, start: 0.000000, bitrate: 1127 kb/s
        Stream #0.0: Video: mpeg4, yuv420p, 624x352 [PAR 1:1 DAR 39:22], 23.98 tbr, 23.98 tbn, 23.98 tbc
        Stream #0.1: Audio: mp3, 48000 Hz, stereo, s16, 128 kb/s
    At least one output file must be specified
    
    
    ---> DB Level Info: -99, -99
    ---> Frame rate: 23.98
    ---> Aspect ratio: 39:22
    Any help on getting this to play would be appreciated

    Regards,
    Hyld

  2. #2
    Join Date
    Nov 2007
    Location
    Melbourne, Australia
    Posts
    11,647

    Default

    Can you please also tell me which device and device profile you are using?

    Mezzmo Android: Install it on your tablet, smartphone, Android TV or Amazon Fire to browse and stream files from your Mezzmo library to all your devices. Full details at http://www.conceiva.com/products/mez...mo_android.asp
    Mezzmo for Kodi Add-on: Install it into Kodi to stream files from your Mezzmo library directly in Kodi. Full details at http://www.mezzmo.com/wiki/doku.php?...odi_user_guide
    Mezzmo for Roku App: Install it onto your Roku to stream files from your Mezzmo library. Full details at http://www.mezzmo.com/wiki/doku.php?...oku_user_guide
    Wiki: User Guides & Reference Manual at http://www.mezzmo.com/wiki
    Facebook: http://www.facebook.com/Mezzmo.DLNA.Server
    Twitter: https://twitter.com/conceiva_mezzmo
    Web: http://www.mezzmo.com

Similar Threads

  1. [SAMSUNG Serie 5 / 5100] Only read some mkv's files
    By julien in forum Mezzmo Questions and Support
    Replies: 4
    Last Post: 05-03-2011, 10:05 AM
  2. Where is the Mezzmo media player I have read about
    By harry_fine in forum Mezzmo Questions and Support
    Replies: 3
    Last Post: 01-31-2011, 04:03 PM
  3. Panasonic g20 "cant read file"
    By cheeseball in forum Mezzmo Questions and Support
    Replies: 3
    Last Post: 12-08-2010, 10:05 AM
  4. Can't read MKV Files
    By xander0185 in forum Mezzmo Questions and Support
    Replies: 1
    Last Post: 11-25-2010, 09:49 AM
  5. Can't read the path completely
    By z0n in forum DownloadStudio Wish List and Feedback
    Replies: 1
    Last Post: 10-27-2008, 12:00 PM

Tags for this Thread

Bookmarks

Posting Permissions

  • You may not post new threads
  • You may not post replies
  • You may not post attachments
  • You may not edit your posts
  •