Results 1 to 7 of 7

Thread: LG 46LD550, and embedded subtitles

  1. #1
    Join Date
    Sep 2011
    Posts
    4

    Default LG 46LD550, and embedded subtitles

    I'm currently trying out your product via trial, and it plays most files I've tested on my LG 46LD550 just fine, however .mkv files with embedded subtitles will play, but not show the subtitles. Similar files in .avi format play them fine. Any ideas what I can do to resolve this?

    I'm running on Windows 7 Pro x64, using latest Mezzmo 2.4.2.0 and K-Lite Codec Pack 7.7.0.

  2. #2
    Join Date
    Nov 2007
    Location
    Melbourne, Australia
    Posts
    11,616

    Default

    Can you please post FFmpeg information on one of those files (in Mezzmo right-click on the file and use the "Get FFmpeg Information" command) and also confirm which device profile you are using (as per the Media Devices dialog). If the file is transcoded, currently Mezzmo will drop embedded subtitles. Also, the TV may support embedded subtitles only in certain file types - we'll need to check that.

    Mezzmo Android: Install it on your tablet, smartphone, Android TV or Amazon Fire to browse and stream files from your Mezzmo library to all your devices. Full details at http://www.conceiva.com/products/mez...mo_android.asp
    Mezzmo for Kodi Add-on: Install it into Kodi to stream files from your Mezzmo library directly in Kodi. Full details at http://www.mezzmo.com/wiki/doku.php?...odi_user_guide
    Mezzmo for Roku App: Install it onto your Roku to stream files from your Mezzmo library. Full details at http://www.mezzmo.com/wiki/doku.php?...oku_user_guide
    Wiki: User Guides & Reference Manual at http://www.mezzmo.com/wiki
    Facebook: http://www.facebook.com/Mezzmo.DLNA.Server
    Twitter: https://twitter.com/conceiva_mezzmo
    Web: http://www.mezzmo.com

  3. #3
    Join Date
    Sep 2011
    Posts
    4

    Default

    Here is the FFmpeg info:

    ffmpeg version N-31788-g0d4ea7b, Copyright (c) 2000-2011 the FFmpeg developers
    built on Aug 10 2011 11:16:35 with gcc 4.4.2
    configuration: --enable-memalign-hack --arch=x86 --target-os=mingw32 --cross-prefix=i686-mingw32- --enable-static --disable-shared --enable-zlib --disable-ffplay --prefix=/media/windows/ffmpeg --enable-libmp3lame --enable-libx264 --enable-gpl --extra-libs='-lx264 -lpthread' --enable-runtime-cpudetect --pkg-config=pkg-config
    libavutil 51. 11. 1 / 51. 11. 1
    libavcodec 53. 10. 0 / 53. 10. 0
    libavformat 53. 6. 0 / 53. 6. 0
    libavdevice 53. 2. 0 / 53. 2. 0
    libavfilter 2. 28. 1 / 2. 28. 1
    libswscale 2. 0. 0 / 2. 0. 0
    libpostproc 51. 2. 0 / 51. 2. 0
    [matroska,webm @ 014e9ce0] max_analyze_duration 5000000 reached at 5014000
    [matroska,webm @ 014e9ce0] Estimating duration from bitrate, this may be inaccurate

    Seems stream 0 codec frame rate differs from container frame rate: 47.95 (5994/125) -> 23.98 (24000/1001)
    Input #0, matroska,webm, from 'D:\Anime\Bleach\[HorribleSubs] Bleach - 296 [480p].mkv':
    Duration: 00:24:04.56, start: 0.000000, bitrate: N/A
    Stream #0.0: Video: h264 (High), yuv420p, 848x480 [SAR 213:212 DAR 71:40], 23.81 fps, 23.98 tbr, 1k tbn, 47.95 tbc (default)
    Stream #0.1: Audio: aac, 44100 Hz, stereo, s16 (default)
    Stream #0.2: Subtitle: ass (default)
    Stream #0.3: Attachment: [0][0][0][0] / 0x0000
    Metadata:
    filename : BAARS___.TTF
    At least one output file must be specified


    ---> DB Level Info: 31, 100
    ---> Frame rate: 23.81
    ---> Aspect ratio: 71:40


    The media device profile being used is LG TV.

  4. #4
    Join Date
    Nov 2007
    Location
    Melbourne, Australia
    Posts
    11,616

    Default

    Thanks for the file info. We should be passing this file through natively, so subtitles will remain intact.

    Looking at the manual, the TV only supports embedded XSUB (DivX subtitles), that's why they are not coming up.
    Last edited by Paul; 09-06-2011 at 09:54 AM.

    Mezzmo Android: Install it on your tablet, smartphone, Android TV or Amazon Fire to browse and stream files from your Mezzmo library to all your devices. Full details at http://www.conceiva.com/products/mez...mo_android.asp
    Mezzmo for Kodi Add-on: Install it into Kodi to stream files from your Mezzmo library directly in Kodi. Full details at http://www.mezzmo.com/wiki/doku.php?...odi_user_guide
    Mezzmo for Roku App: Install it onto your Roku to stream files from your Mezzmo library. Full details at http://www.mezzmo.com/wiki/doku.php?...oku_user_guide
    Wiki: User Guides & Reference Manual at http://www.mezzmo.com/wiki
    Facebook: http://www.facebook.com/Mezzmo.DLNA.Server
    Twitter: https://twitter.com/conceiva_mezzmo
    Web: http://www.mezzmo.com

  5. #5
    Join Date
    Sep 2011
    Posts
    4

    Default

    What's the status of transcoding support for subtitles?

  6. #6
    Join Date
    Nov 2007
    Location
    Melbourne, Australia
    Posts
    11,616

    Default

    Sorry, I can't give an official ETA on that, but it's being developed and tested.

    Mezzmo Android: Install it on your tablet, smartphone, Android TV or Amazon Fire to browse and stream files from your Mezzmo library to all your devices. Full details at http://www.conceiva.com/products/mez...mo_android.asp
    Mezzmo for Kodi Add-on: Install it into Kodi to stream files from your Mezzmo library directly in Kodi. Full details at http://www.mezzmo.com/wiki/doku.php?...odi_user_guide
    Mezzmo for Roku App: Install it onto your Roku to stream files from your Mezzmo library. Full details at http://www.mezzmo.com/wiki/doku.php?...oku_user_guide
    Wiki: User Guides & Reference Manual at http://www.mezzmo.com/wiki
    Facebook: http://www.facebook.com/Mezzmo.DLNA.Server
    Twitter: https://twitter.com/conceiva_mezzmo
    Web: http://www.mezzmo.com

  7. #7
    Join Date
    Sep 2011
    Posts
    4

    Default

    Ok thanks for the help.

Similar Threads

  1. Playing subtitles embedded in mkv and selection of audio
    By KennyZz in forum Mezzmo Questions and Support
    Replies: 23
    Last Post: 10-17-2011, 04:44 PM
  2. AVI Files with embedded Subtitles
    By edged in forum Mezzmo Questions and Support
    Replies: 1
    Last Post: 05-19-2011, 08:48 AM
  3. 2.3 subtitles SamsungC8700
    By JaySea in forum Mezzmo Questions and Support
    Replies: 1
    Last Post: 04-18-2011, 09:08 AM
  4. Can, and if so, How to play Subtitles with mezzmo if embedded, or in srt fromat?
    By phenomonlaity in forum Mezzmo Wish List and Feedback
    Replies: 3
    Last Post: 09-23-2010, 08:40 AM
  5. .MKV no subtitles
    By Pho shizzle in forum Mezzmo Questions and Support
    Replies: 3
    Last Post: 06-25-2010, 11:09 AM

Tags for this Thread

Bookmarks

Posting Permissions

  • You may not post new threads
  • You may not post replies
  • You may not post attachments
  • You may not edit your posts
  •