Results 1 to 2 of 2

Thread: Any idea why this avi shows up as unsupported

  1. #1
    Join Date
    Sep 2011
    Posts
    3

    Default Any idea why this avi shows up as unsupported

    ffmpeg version N-32348-g6dbac85, Copyright (c) 2000-2011 the FFmpeg developers
    built on Sep 6 2011 16:03:56 with gcc 4.4.2
    configuration: --enable-memalign-hack --arch=x86 --target-os=mingw32 --cross-prefix=i686-mingw32- --enable-static --disable-shared --enable-zlib --disable-ffplay --prefix=/media/windows/ffmpeg --enable-libmp3lame --enable-libx264 --enable-gpl --extra-libs='-lx264 -lpthread' --enable-runtime-cpudetect --pkg-config=pkg-config
    libavutil 51. 16. 0 / 51. 16. 0
    libavcodec 53. 13. 0 / 53. 13. 0
    libavformat 53. 11. 0 / 53. 11. 0
    libavdevice 53. 3. 0 / 53. 3. 0
    libavfilter 2. 37. 0 / 2. 37. 0
    libswscale 2. 1. 0 / 2. 1. 0
    libpostproc 51. 2. 0 / 51. 2. 0
    [avi @ 01691180] max_analyze_duration 5000000 reached at 5024000
    Input #0, avi, from 'E:\Movies\Tactical.Force.2011.DVDrip.ENG-Dutch.avi':
    Metadata:
    encoder : FairUse Wizard - http://fairusewizard.com
    Duration: 01:28:18.08, start: 0.000000, bitrate: 1184 kb/s
    Stream #0.0: Video: h264 (High) (H264 / 0x34363248), yuv420p, 712x392, 23.98 fps, 23.98 tbr, 23.98 tbn, 47.95 tbc
    Stream #0.1: Audio: ac3 ([0] [0][0] / 0x2000), 48000 Hz, 5.1(side), s16, 448 kb/s
    At least one output file must be specified


    ---> DB Level Info: 30, 100
    ---> Frame rate: 23.98
    ---> Aspect ratio:

  2. #2
    Join Date
    Nov 2007
    Location
    Melbourne, Australia
    Posts
    11,616

    Default

    On what device and using which device profile?

    Mezzmo Android: Install it on your tablet, smartphone, Android TV or Amazon Fire to browse and stream files from your Mezzmo library to all your devices. Full details at http://www.conceiva.com/products/mez...mo_android.asp
    Mezzmo for Kodi Add-on: Install it into Kodi to stream files from your Mezzmo library directly in Kodi. Full details at http://www.mezzmo.com/wiki/doku.php?...odi_user_guide
    Mezzmo for Roku App: Install it onto your Roku to stream files from your Mezzmo library. Full details at http://www.mezzmo.com/wiki/doku.php?...oku_user_guide
    Wiki: User Guides & Reference Manual at http://www.mezzmo.com/wiki
    Facebook: http://www.facebook.com/Mezzmo.DLNA.Server
    Twitter: https://twitter.com/conceiva_mezzmo
    Web: http://www.mezzmo.com

Similar Threads

  1. dvr-ms files and Samsung LED TV shows narrow videos
    By biblet in forum Mezzmo Questions and Support
    Replies: 3
    Last Post: 08-18-2011, 02:05 PM
  2. Option to exclude unsupported file types
    By vcor in forum Mezzmo Wish List and Feedback
    Replies: 1
    Last Post: 08-16-2011, 11:10 AM
  3. PS3 Unsupported data error
    By infinit_e in forum Mezzmo Questions and Support
    Replies: 3
    Last Post: 04-27-2011, 10:58 AM
  4. D-Link DSM-320 Shows Album Art and Won't Play MP3 Tracks
    By Comex in forum Mezzmo Questions and Support
    Replies: 6
    Last Post: 11-08-2010, 03:57 AM
  5. UPNP Client Buffalo LinkTheater shows unauthorized access
    By cheimmez in forum Mezzmo Questions and Support
    Replies: 5
    Last Post: 03-31-2010, 08:31 AM

Tags for this Thread

Bookmarks

Posting Permissions

  • You may not post new threads
  • You may not post replies
  • You may not post attachments
  • You may not edit your posts
  •