Results 1 to 6 of 6

Thread: Is there a way to configure Mezzmo for transcoding only audio?

  1. #1
    Join Date
    Sep 2011
    Posts
    1

    Question Is there a way to configure Mezzmo for transcoding only audio?

    Hi,

    I am setting up my home media server. I have been testing various server options, varios client options, and varios formats for containers, video, and audio. So far, I have identified limitations on my TV, BD player, DirecTV receiver using their embedded DLNA clients. Now, I need to know if it is possible to configure Mezzmo for doing only transcoding of audio and no video transcoding. I can play movies using original video formats which means original video quality without having to recode to different formats. I am just having trouble with some original audio formats like DTS, DTS-HD, and Dolby.

    Thanks
    Pedro

  2. #2
    Join Date
    Nov 2007
    Location
    Melbourne, Australia
    Posts
    11,616

    Default

    Hi Pedro,

    Mezzmo will try to remux (transcode only audio, for example) as much as possible, based on the device profile you have selected and your file. If you feel that Mezzmo transcodes video when it shouldn't, please post FFmpeg information on such a file (in Mezzmo right-click on the file and use the "Get FFmpeg Information" command) and also tell me which device profile you are using and we'll see what's happening.

    Mezzmo Android: Install it on your tablet, smartphone, Android TV or Amazon Fire to browse and stream files from your Mezzmo library to all your devices. Full details at http://www.conceiva.com/products/mez...mo_android.asp
    Mezzmo for Kodi Add-on: Install it into Kodi to stream files from your Mezzmo library directly in Kodi. Full details at http://www.mezzmo.com/wiki/doku.php?...odi_user_guide
    Mezzmo for Roku App: Install it onto your Roku to stream files from your Mezzmo library. Full details at http://www.mezzmo.com/wiki/doku.php?...oku_user_guide
    Wiki: User Guides & Reference Manual at http://www.mezzmo.com/wiki
    Facebook: http://www.facebook.com/Mezzmo.DLNA.Server
    Twitter: https://twitter.com/conceiva_mezzmo
    Web: http://www.mezzmo.com

  3. #3

    Default

    I know the thread is old, but why a new thread if my problem is exactly the same?
    My TV supports h264 and most of my videos has that already, but not all. I'm using the Thomson TV profile that you provided me with a e-mail.
    If I have a video with h264 and DTS, Mezzmo only transcodes it with 15-22fps (too slow! On i5-2500k - 4x 3.3ghz - not overclocked currently). But only DTS needs to be transcoded to AC3.
    //Edit: Could you enable in the profile to stream external subtitles without to transcode them in the video? My TV supports it.
    Thats the video:

    ffmpeg version N-50460-g393dcbf Copyright (c) 2000-2013 the FFmpeg developers
    built on Mar 4 2013 17:38:17 with gcc 4.6.2 (GCC)
    configuration: --enable-memalign-hack --arch=x86 --target-os=mingw32 --cross-prefix=i686-w64-mingw32- --enable-static --disable-shared --enable-zlib --disable-postproc --prefix=/home/peter/ffmpeg/build/gpl --enable-libmp3lame --enable-libx264 --enable-gpl --extra-libs='-lx264 -lpthread' --enable-runtime-cpudetect --extra-cflags=-I/home/peter/cc/include --extra-ldflags=-L/home/peter/cc/lib --pkg-config=pkg-config --disable-w32threads --enable-zlib
    libavutil 52. 17.103 / 52. 17.103
    libavcodec 54. 92.100 / 54. 92.100
    libavformat 54. 63.102 / 54. 63.102
    libavdevice 54. 3.103 / 54. 3.103
    libavfilter 3. 41.100 / 3. 41.100
    libswscale 2. 2.100 / 2. 2.100
    libswresample 0. 17.102 / 0. 17.102
    Input #0, matroska,webm, from 'E:\video.mkv':
    Metadata:
    creation_time : 2010-11-14 08:59:17
    Duration: 01:58:17.64, start: 0.000000, bitrate: 15074 kb/s
    Stream #0:0(eng): Video: h264 (High), yuv420p, 1920x1040, SAR 1:1 DAR 24:13, 23.98 fps, 23.98 tbr, 1k tbn, 47.95 tbc
    Stream #0:1(ger): Audio: dts (DTS), 48000 Hz, 5.1(side), fltp, 768 kb/s (default) (forced)
    Stream #0:2(eng): Audio: dts (DTS), 48000 Hz, 5.1(side), fltp, 1536 kb/s
    Stream #0:3(ger): Subtitle: subrip (default) (forced)
    Stream #0:4(ger): Subtitle: subrip
    Stream #0:5(ger): Subtitle: subrip
    Stream #0:6(ger): Subtitle: subrip
    Stream #0:7(eng): Subtitle: subrip
    Stream #0:8(eng): Subtitle: subrip
    Stream #0:9(eng): Subtitle: subrip
    At least one output file must be specified

    <MEZZMO>: Child process ended with code: 109, ExitCode=1


    ---> DB Level Info: 41, 100
    ---> Frame rate: 23,98
    ---> Aspect ratio: 24:13


    But, I have videos there I can transcode with over 1000 fps but the video has the same codecs:

    ffmpeg version N-50460-g393dcbf Copyright (c) 2000-2013 the FFmpeg developers
    built on Mar 4 2013 17:38:17 with gcc 4.6.2 (GCC)
    configuration: --enable-memalign-hack --arch=x86 --target-os=mingw32 --cross-prefix=i686-w64-mingw32- --enable-static --disable-shared --enable-zlib --disable-postproc --prefix=/home/peter/ffmpeg/build/gpl --enable-libmp3lame --enable-libx264 --enable-gpl --extra-libs='-lx264 -lpthread' --enable-runtime-cpudetect --extra-cflags=-I/home/peter/cc/include --extra-ldflags=-L/home/peter/cc/lib --pkg-config=pkg-config --disable-w32threads --enable-zlib
    libavutil 52. 17.103 / 52. 17.103
    libavcodec 54. 92.100 / 54. 92.100
    libavformat 54. 63.102 / 54. 63.102
    libavdevice 54. 3.103 / 54. 3.103
    libavfilter 3. 41.100 / 3. 41.100
    libswscale 2. 2.100 / 2. 2.100
    libswresample 0. 17.102 / 0. 17.102
    Input #0, matroska,webm, from 'E:\video2.mkv':
    Metadata:
    creation_time : 2011-12-10 13:15:08
    Duration: 01:28:51.00, start: 0.000000, bitrate: 9384 kb/s
    Stream #0:0: Video: h264 (High), yuv420p, 1920x1080, SAR 1:1 DAR 16:9, 23.98 fps, 23.98 tbr, 1k tbn, 47.95 tbc (default)
    Stream #0:1(eng): Audio: dts (DTS), 48000 Hz, 5.1(side), fltp, 1536 kb/s (default)
    Stream #0:2(ger): Audio: dts (DTS), 48000 Hz, 5.1(side), fltp, 1536 kb/s
    At least one output file must be specified

    <MEZZMO>: Child process ended with code: 109, ExitCode=1


    ---> DB Level Info: 41, 100
    ---> Frame rate: 23,98
    ---> Aspect ratio: 16:9
    Last edited by Yama; 07-29-2013 at 08:40 AM.

  4. #4
    Join Date
    Jul 2010
    Location
    California, USA
    Posts
    195

    Default

    Would the different video resolution cause it to be transcoded?

  5. #5

    Default

    Well yeah... You are right.

  6. #6
    Join Date
    Oct 2013
    Posts
    2

    Default

    New blood into an old thread:


    As many of us know, new TVs gracefully stopped supporting DTS audio (or even allowing digital pass-through), while a large share of films has DTS as the principal audio stream.

    Will appreciate help in configuring transcoding in Mezzmo so that only audio is transcoded from DTS to AC3 and video is passed through (the video plays well natively - I checked). The TV is Panasonic FZ800 series and I use Panasonic 2015 UHD model profile in Mezzmo. As the things stand now, the file transcodes at 10fps even using graphics card acceleration - haven't yet checked the result.

    Thank you in advance.

    See, please, ffmpeg info below:

    ffmpeg version N-78742-gf477849 Copyright (c) 2000-2017 the FFmpeg developers
    built with gcc 4.9.2 (GCC)
    configuration: --arch=x86_64 --target-os=mingw32 --cross-prefix=x86_64-w64-mingw32- --enable-static --disable-shared --enable-zlib --disable-postproc --prefix=/home/peter/ffmpeg/build/gpl64 --enable-libmp3lame --enable-libx264 --enable-gpl --extra-libs='-lx264 -lpthread -lstdc++' --enable-runtime-cpudetect --extra-cflags=-I/home/peter/cc32/include --extra-ldflags=-L/home/peter/cc64/lib --pkg-config=pkg-config --pkg-config-flags=--static --disable-w32threads --enable-libvpx --enable-libvorbis --enable-libtheora --enable-libx265 --enable-cuda --enable-cuvid --enable-dxva2 --enable-libmfx --enable-nvenc --enable-gnutls --extra-libs='-lz -lnettle -lhogweed -lgmp -lidn -lws2_32 -lcrypt32'
    libavutil 55. 74.100 / 55. 74.100
    libavcodec 57.103.100 / 57.103.100
    libavformat 57. 76.100 / 57. 76.100
    libavdevice 57. 7.100 / 57. 7.100
    libavfilter 6.100.100 / 6.100.100
    libswscale 4. 7.102 / 4. 7.102
    libswresample 2. 8.100 / 2. 8.100
    [matroska,webm @ 0000000000f76960] Stream #44: not enough frames to estimate rate; consider increasing probesize
    [matroska,webm @ 0000000000f76960] Stream #45: not enough frames to estimate rate; consider increasing probesize
    [matroska,webm @ 0000000000f76960] Stream #46: not enough frames to estimate rate; consider increasing probesize
    [matroska,webm @ 0000000000f76960] Stream #47: not enough frames to estimate rate; consider increasing probesize
    [matroska,webm @ 0000000000f76960] Could not find codec parameters for stream 17 (Subtitle: hdmv_pgs_subtitle): unspecified size
    Consider increasing the value for the 'analyzeduration' and 'probesize' options
    [matroska,webm @ 0000000000f76960] Could not find codec parameters for stream 18 (Subtitle: hdmv_pgs_subtitle): unspecified size
    Consider increasing the value for the 'analyzeduration' and 'probesize' options
    [matroska,webm @ 0000000000f76960] Could not find codec parameters for stream 19 (Subtitle: hdmv_pgs_subtitle): unspecified size
    Consider increasing the value for the 'analyzeduration' and 'probesize' options
    [matroska,webm @ 0000000000f76960] Could not find codec parameters for stream 20 (Subtitle: hdmv_pgs_subtitle): unspecified size
    Consider increasing the value for the 'analyzeduration' and 'probesize' options
    [matroska,webm @ 0000000000f76960] Could not find codec parameters for stream 21 (Subtitle: hdmv_pgs_subtitle): unspecified size
    Consider increasing the value for the 'analyzeduration' and 'probesize' options
    [matroska,webm @ 0000000000f76960] Could not find codec parameters for stream 22 (Subtitle: hdmv_pgs_subtitle): unspecified size
    Consider increasing the value for the 'analyzeduration' and 'probesize' options
    [matroska,webm @ 0000000000f76960] Could not find codec parameters for stream 23 (Subtitle: hdmv_pgs_subtitle): unspecified size
    Consider increasing the value for the 'analyzeduration' and 'probesize' options
    [matroska,webm @ 0000000000f76960] Could not find codec parameters for stream 24 (Subtitle: hdmv_pgs_subtitle): unspecified size
    Consider increasing the value for the 'analyzeduration' and 'probesize' options
    [matroska,webm @ 0000000000f76960] Could not find codec parameters for stream 25 (Subtitle: hdmv_pgs_subtitle): unspecified size
    Consider increasing the value for the 'analyzeduration' and 'probesize' options
    [matroska,webm @ 0000000000f76960] Could not find codec parameters for stream 26 (Subtitle: hdmv_pgs_subtitle): unspecified size
    Consider increasing the value for the 'analyzeduration' and 'probesize' options
    [matroska,webm @ 0000000000f76960] Could not find codec parameters for stream 27 (Subtitle: hdmv_pgs_subtitle): unspecified size
    Consider increasing the value for the 'analyzeduration' and 'probesize' options
    [matroska,webm @ 0000000000f76960] Could not find codec parameters for stream 28 (Subtitle: hdmv_pgs_subtitle): unspecified size
    Consider increasing the value for the 'analyzeduration' and 'probesize' options
    [matroska,webm @ 0000000000f76960] Could not find codec parameters for stream 29 (Subtitle: hdmv_pgs_subtitle): unspecified size
    Consider increasing the value for the 'analyzeduration' and 'probesize' options
    [matroska,webm @ 0000000000f76960] Could not find codec parameters for stream 30 (Subtitle: hdmv_pgs_subtitle): unspecified size
    Consider increasing the value for the 'analyzeduration' and 'probesize' options
    [matroska,webm @ 0000000000f76960] Could not find codec parameters for stream 31 (Subtitle: hdmv_pgs_subtitle): unspecified size
    Consider increasing the value for the 'analyzeduration' and 'probesize' options
    [matroska,webm @ 0000000000f76960] Could not find codec parameters for stream 32 (Subtitle: hdmv_pgs_subtitle): unspecified size
    Consider increasing the value for the 'analyzeduration' and 'probesize' options
    [matroska,webm @ 0000000000f76960] Could not find codec parameters for stream 33 (Subtitle: hdmv_pgs_subtitle): unspecified size
    Consider increasing the value for the 'analyzeduration' and 'probesize' options
    [matroska,webm @ 0000000000f76960] Could not find codec parameters for stream 34 (Subtitle: hdmv_pgs_subtitle): unspecified size
    Consider increasing the value for the 'analyzeduration' and 'probesize' options
    [matroska,webm @ 0000000000f76960] Could not find codec parameters for stream 35 (Subtitle: hdmv_pgs_subtitle): unspecified size
    Consider increasing the value for the 'analyzeduration' and 'probesize' options
    [matroska,webm @ 0000000000f76960] Could not find codec parameters for stream 36 (Subtitle: hdmv_pgs_subtitle): unspecified size
    Consider increasing the value for the 'analyzeduration' and 'probesize' options
    [matroska,webm @ 0000000000f76960] Could not find codec parameters for stream 37 (Subtitle: hdmv_pgs_subtitle): unspecified size
    Consider increasing the value for the 'analyzeduration' and 'probesize' options
    [matroska,webm @ 0000000000f76960] Could not find codec parameters for stream 38 (Subtitle: hdmv_pgs_subtitle): unspecified size
    Consider increasing the value for the 'analyzeduration' and 'probesize' options
    [matroska,webm @ 0000000000f76960] Could not find codec parameters for stream 39 (Subtitle: hdmv_pgs_subtitle): unspecified size
    Consider increasing the value for the 'analyzeduration' and 'probesize' options
    [matroska,webm @ 0000000000f76960] Could not find codec parameters for stream 40 (Subtitle: hdmv_pgs_subtitle): unspecified size
    Consider increasing the value for the 'analyzeduration' and 'probesize' options
    [matroska,webm @ 0000000000f76960] Could not find codec parameters for stream 41 (Subtitle: hdmv_pgs_subtitle): unspecified size
    Consider increasing the value for the 'analyzeduration' and 'probesize' options
    [matroska,webm @ 0000000000f76960] Could not find codec parameters for stream 42 (Subtitle: hdmv_pgs_subtitle): unspecified size
    Consider increasing the value for the 'analyzeduration' and 'probesize' options
    [matroska,webm @ 0000000000f76960] Could not find codec parameters for stream 43 (Subtitle: hdmv_pgs_subtitle): unspecified size
    Consider increasing the value for the 'analyzeduration' and 'probesize' options
    Input #0, matroska,webm, from '\\192.168.0.158\DS Public\Videos\Alien.1979.THEATRICAL.2160p.BluRay.R EMUX.HEVC.DTS-HD.MA.5.1-FGT\Alien.1979.THEATRICAL.2160p.BluRay.REMUX.HEVC. DTS-HD.MA.5.1-FGT.mkv':
    Metadata:
    title : Alien.1979.THEATRICAL.2160p.BluRay.REMUX.HEVC.DTS-HD.MA.5.1-FGT
    encoder : libebml v1.3.7 + libmatroska v1.5.0
    creation_time : 2019-04-10T18:08:23.000000Z
    Duration: 01:56:37.02, start: 0.000000, bitrate: 64125 kb/s
    Chapter #0:0: start 0.000000, end 119.369250
    Metadata:
    title : Chapter 01
    Chapter #0:1: start 119.369250, end 555.221333
    Metadata:
    title : Chapter 02
    Chapter #0:2: start 555.221333, end 764.889125
    Metadata:
    title : Chapter 03
    Chapter #0:3: start 764.889125, end 1114.947167
    Metadata:
    title : Chapter 04
    Chapter #0:4: start 1114.947167, end 1311.685375
    Metadata:
    title : Chapter 05
    Chapter #0:5: start 1311.685375, end 1431.972208
    Metadata:
    title : Chapter 06
    Chapter #0:6: start 1431.972208, end 1608.690417
    Metadata:
    title : Chapter 07
    Chapter #0:7: start 1608.690417, end 1864.696167
    Metadata:
    title : Chapter 08
    Chapter #0:8: start 1864.696167, end 2085.291542
    Metadata:
    title : Chapter 09
    Chapter #0:9: start 2085.291542, end 2352.266583
    Metadata:
    title : Chapter 10
    Chapter #0:10: start 2352.266583, end 2524.897375
    Metadata:
    title : Chapter 11
    Chapter #0:11: start 2524.897375, end 2783.280500
    Metadata:
    title : Chapter 12
    Chapter #0:12: start 2783.280500, end 3053.467083
    Metadata:
    title : Chapter 13
    Chapter #0:13: start 3053.467083, end 3213.835625
    Metadata:
    title : Chapter 14
    Chapter #0:14: start 3213.835625, end 3504.125625
    Metadata:
    title : Chapter 15
    Chapter #0:15: start 3504.125625, end 3810.473333
    Metadata:
    title : Chapter 16
    Chapter #0:16: start 3810.473333, end 4085.498083
    Metadata:
    title : Chapter 17
    Chapter #0:17: start 4085.498083, end 4259.171583
    Metadata:
    title : Chapter 18
    Chapter #0:18: start 4259.171583, end 4447.609833
    Metadata:
    title : Chapter 19
    Chapter #0:19: start 4447.609833, end 4549.127917
    Metadata:
    title : Chapter 20
    Chapter #0:20: start 4549.127917, end 4715.210500
    Metadata:
    title : Chapter 21
    Chapter #0:21: start 4715.210500, end 5047.876167
    Metadata:
    title : Chapter 22
    Chapter #0:22: start 5047.876167, end 5301.838208
    Metadata:
    title : Chapter 23
    Chapter #0:23: start 5301.838208, end 5452.321875
    Metadata:
    title : Chapter 24
    Chapter #0:24: start 5452.321875, end 5571.232333
    Metadata:
    title : Chapter 25
    Chapter #0:25: start 5571.232333, end 5682.510167
    Metadata:
    title : Chapter 26
    Chapter #0:26: start 5682.510167, end 5786.614167
    Metadata:
    title : Chapter 27
    Chapter #0:27: start 5786.614167, end 5965.292667
    Metadata:
    title : Chapter 28
    Chapter #0:28: start 5965.292667, end 6253.956042
    Metadata:
    title : Chapter 29
    Chapter #0:29: start 6253.956042, end 6423.458708
    Metadata:
    title : Chapter 30
    Chapter #0:30: start 6423.458708, end 6831.324500
    Metadata:
    title : Chapter 31
    Chapter #0:31: start 6831.324500, end 6996.990000
    Metadata:
    title : Chapter 32
    Stream #0:0(eng): Video: hevc (Main 10), yuv420p10le(tv, bt2020nc/bt2020/smpte2084), 3840x2160 [SAR 1:1 DAR 16:9], 23.98 fps, 23.98 tbr, 1k tbn, 23.98 tbc
    Metadata:
    title : Alien.1979.THEATRICAL.2160p.BluRay.REMUX.HEVC.DTS-HD.MA.5.1-FGT
    BPS-eng : 49417914
    DURATION-eng : 01:56:36.990000000
    NUMBER_OF_FRAMES-eng: 167760
    NUMBER_OF_BYTES-eng: 43222081670
    _STATISTICS_WRITING_APP-eng: mkvmerge v32.0.0 ('Astral Progressions') 64-bit
    _STATISTICS_WRITING_DATE_UTC-eng: 2019-04-10 18:08:23
    _STATISTICS_TAGS-eng: BPS DURATION NUMBER_OF_FRAMES NUMBER_OF_BYTES
    Stream #0:1(eng): Audio: dts (DTS-HD MA), 48000 Hz, 5.1(side), s32p (24 bit) (default)
    Metadata:
    title : Alien.1979.THEATRICAL.2160p.BluRay.REMUX.HEVC.DTS-HD.MA.5.1-FGT
    BPS-eng : 3427033
    DURATION-eng : 01:56:37.003000000
    NUMBER_OF_FRAMES-eng: 655969
    NUMBER_OF_BYTES-eng: 2997370664
    _STATISTICS_WRITING_APP-eng: mkvmerge v32.0.0 ('Astral Progressions') 64-bit
    _STATISTICS_WRITING_DATE_UTC-eng: 2019-04-10 18:08:23
    _STATISTICS_TAGS-eng: BPS DURATION NUMBER_OF_FRAMES NUMBER_OF_BYTES
    Stream #0:2(eng): Audio: dts (DTS-HD MA), 48000 Hz, 4.1, s32p (24 bit)
    Metadata:
    title : Alien.1979.THEATRICAL.2160p.BluRay.REMUX.HEVC.DTS-HD.MA.5.1-FGT
    BPS-eng : 2980355
    DURATION-eng : 01:56:37.003000000
    NUMBER_OF_FRAMES-eng: 655969
    NUMBER_OF_BYTES-eng: 2606694836
    _STATISTICS_WRITING_APP-eng: mkvmerge v32.0.0 ('Astral Progressions') 64-bit
    _STATISTICS_WRITING_DATE_UTC-eng: 2019-04-10 18:08:23
    _STATISTICS_TAGS-eng: BPS DURATION NUMBER_OF_FRAMES NUMBER_OF_BYTES
    Stream #0:3(eng): Audio: dts (DTS-HD MA), 48000 Hz, stereo, s32p (24 bit)
    Metadata:
    title : Alien.1979.THEATRICAL.2160p.BluRay.REMUX.HEVC.DTS-HD.MA.5.1-FGT
    BPS-eng : 1998821
    DURATION-eng : 01:56:37.003000000
    NUMBER_OF_FRAMES-eng: 655969
    NUMBER_OF_BYTES-eng: 1748219756
    _STATISTICS_WRITING_APP-eng: mkvmerge v32.0.0 ('Astral Progressions') 64-bit
    _STATISTICS_WRITING_DATE_UTC-eng: 2019-04-10 18:08:23
    _STATISTICS_TAGS-eng: BPS DURATION NUMBER_OF_FRAMES NUMBER_OF_BYTES
    Stream #0:4(spa): Audio: ac3, 48000 Hz, 5.1(side), fltp, 448 kb/s
    Metadata:
    title : Alien.1979.THEATRICAL.2160p.BluRay.REMUX.HEVC.DTS-HD.MA.5.1-FGT
    BPS-eng : 448000
    DURATION-eng : 01:56:37.024000000
    NUMBER_OF_FRAMES-eng: 218657
    NUMBER_OF_BYTES-eng: 391833344
    _STATISTICS_WRITING_APP-eng: mkvmerge v32.0.0 ('Astral Progressions') 64-bit
    _STATISTICS_WRITING_DATE_UTC-eng: 2019-04-10 18:08:23
    _STATISTICS_TAGS-eng: BPS DURATION NUMBER_OF_FRAMES NUMBER_OF_BYTES
    Stream #0:5(fre): Audio: dts (DTS), 48000 Hz, 5.1(side), fltp, 768 kb/s
    Metadata:
    title : Alien.1979.THEATRICAL.2160p.BluRay.REMUX.HEVC.DTS-HD.MA.5.1-FGT
    BPS-eng : 767999
    DURATION-eng : 01:56:37.003000000
    NUMBER_OF_FRAMES-eng: 655969
    NUMBER_OF_BYTES-eng: 671712256
    _STATISTICS_WRITING_APP-eng: mkvmerge v32.0.0 ('Astral Progressions') 64-bit
    _STATISTICS_WRITING_DATE_UTC-eng: 2019-04-10 18:08:23
    _STATISTICS_TAGS-eng: BPS DURATION NUMBER_OF_FRAMES NUMBER_OF_BYTES
    Stream #0:6(spa): Audio: dts (DTS), 48000 Hz, 5.1(side), fltp, 768 kb/s
    Metadata:
    title : Alien.1979.THEATRICAL.2160p.BluRay.REMUX.HEVC.DTS-HD.MA.5.1-FGT
    BPS-eng : 767999
    DURATION-eng : 01:56:37.003000000
    NUMBER_OF_FRAMES-eng: 655969
    NUMBER_OF_BYTES-eng: 671712256
    _STATISTICS_WRITING_APP-eng: mkvmerge v32.0.0 ('Astral Progressions') 64-bit
    _STATISTICS_WRITING_DATE_UTC-eng: 2019-04-10 18:08:23
    _STATISTICS_TAGS-eng: BPS DURATION NUMBER_OF_FRAMES NUMBER_OF_BYTES
    Stream #0:7(ger): Audio: dts (DTS), 48000 Hz, 5.1(side), fltp, 768 kb/s
    Metadata:
    title : Alien.1979.THEATRICAL.2160p.BluRay.REMUX.HEVC.DTS-HD.MA.5.1-FGT
    BPS-eng : 767999
    DURATION-eng : 01:56:37.003000000
    NUMBER_OF_FRAMES-eng: 655969
    NUMBER_OF_BYTES-eng: 671712256
    _STATISTICS_WRITING_APP-eng: mkvmerge v32.0.0 ('Astral Progressions') 64-bit
    _STATISTICS_WRITING_DATE_UTC-eng: 2019-04-10 18:08:23
    _STATISTICS_TAGS-eng: BPS DURATION NUMBER_OF_FRAMES NUMBER_OF_BYTES
    Stream #0:8(ita): Audio: dts (DTS), 48000 Hz, 5.1(side), fltp, 768 kb/s
    Metadata:
    title : Alien.1979.THEATRICAL.2160p.BluRay.REMUX.HEVC.DTS-HD.MA.5.1-FGT
    BPS-eng : 767999
    DURATION-eng : 01:56:37.003000000
    NUMBER_OF_FRAMES-eng: 655969
    NUMBER_OF_BYTES-eng: 671712256
    _STATISTICS_WRITING_APP-eng: mkvmerge v32.0.0 ('Astral Progressions') 64-bit
    _STATISTICS_WRITING_DATE_UTC-eng: 2019-04-10 18:08:23
    _STATISTICS_TAGS-eng: BPS DURATION NUMBER_OF_FRAMES NUMBER_OF_BYTES
    Stream #0:9(cze): Audio: ac3, 48000 Hz, 5.1(side), fltp, 448 kb/s
    Metadata:
    title : Alien.1979.THEATRICAL.2160p.BluRay.REMUX.HEVC.DTS-HD.MA.5.1-FGT
    BPS-eng : 448000
    DURATION-eng : 01:56:37.024000000
    NUMBER_OF_FRAMES-eng: 218657
    NUMBER_OF_BYTES-eng: 391833344
    _STATISTICS_WRITING_APP-eng: mkvmerge v32.0.0 ('Astral Progressions') 64-bit
    _STATISTICS_WRITING_DATE_UTC-eng: 2019-04-10 18:08:23
    _STATISTICS_TAGS-eng: BPS DURATION NUMBER_OF_FRAMES NUMBER_OF_BYTES
    Stream #0:10(tha): Audio: ac3, 48000 Hz, 5.1(side), fltp, 448 kb/s
    Metadata:
    title : Alien.1979.THEATRICAL.2160p.BluRay.REMUX.HEVC.DTS-HD.MA.5.1-FGT
    BPS-eng : 448000
    DURATION-eng : 01:56:37.024000000
    NUMBER_OF_FRAMES-eng: 218657
    NUMBER_OF_BYTES-eng: 391833344
    _STATISTICS_WRITING_APP-eng: mkvmerge v32.0.0 ('Astral Progressions') 64-bit
    _STATISTICS_WRITING_DATE_UTC-eng: 2019-04-10 18:08:23
    _STATISTICS_TAGS-eng: BPS DURATION NUMBER_OF_FRAMES NUMBER_OF_BYTES
    Stream #0:11(eng): Audio: ac3, 48000 Hz, stereo, fltp, 224 kb/s
    Metadata:
    title : Alien.1979.THEATRICAL.2160p.BluRay.REMUX.HEVC.DTS-HD.MA.5.1-FGT
    BPS-eng : 224000
    DURATION-eng : 01:56:37.024000000
    NUMBER_OF_FRAMES-eng: 218657
    NUMBER_OF_BYTES-eng: 195916672
    _STATISTICS_WRITING_APP-eng: mkvmerge v32.0.0 ('Astral Progressions') 64-bit
    _STATISTICS_WRITING_DATE_UTC-eng: 2019-04-10 18:08:23
    _STATISTICS_TAGS-eng: BPS DURATION NUMBER_OF_FRAMES NUMBER_OF_BYTES
    Stream #0:12(eng): Audio: ac3, 48000 Hz, stereo, fltp, 224 kb/s
    Metadata:
    title : Alien.1979.THEATRICAL.2160p.BluRay.REMUX.HEVC.DTS-HD.MA.5.1-FGT
    BPS-eng : 224000
    DURATION-eng : 01:56:37.024000000
    NUMBER_OF_FRAMES-eng: 218657
    NUMBER_OF_BYTES-eng: 195916672
    _STATISTICS_WRITING_APP-eng: mkvmerge v32.0.0 ('Astral Progressions') 64-bit
    _STATISTICS_WRITING_DATE_UTC-eng: 2019-04-10 18:08:23
    _STATISTICS_TAGS-eng: BPS DURATION NUMBER_OF_FRAMES NUMBER_OF_BYTES
    Stream #0:13(eng): Audio: ac3, 48000 Hz, 5.1(side), fltp, 448 kb/s
    Metadata:
    title : Alien.1979.THEATRICAL.2160p.BluRay.REMUX.HEVC.DTS-HD.MA.5.1-FGT
    BPS-eng : 448000
    DURATION-eng : 01:56:37.024000000
    NUMBER_OF_FRAMES-eng: 218657
    NUMBER_OF_BYTES-eng: 391833344
    _STATISTICS_WRITING_APP-eng: mkvmerge v32.0.0 ('Astral Progressions') 64-bit
    _STATISTICS_WRITING_DATE_UTC-eng: 2019-04-10 18:08:23
    _STATISTICS_TAGS-eng: BPS DURATION NUMBER_OF_FRAMES NUMBER_OF_BYTES
    Stream #0:14(eng): Audio: ac3, 48000 Hz, 5.1(side), fltp, 448 kb/s
    Metadata:
    title : Alien.1979.THEATRICAL.2160p.BluRay.REMUX.HEVC.DTS-HD.MA.5.1-FGT
    BPS-eng : 448000
    DURATION-eng : 01:56:37.024000000
    NUMBER_OF_FRAMES-eng: 218657
    NUMBER_OF_BYTES-eng: 391833344
    _STATISTICS_WRITING_APP-eng: mkvmerge v32.0.0 ('Astral Progressions') 64-bit
    _STATISTICS_WRITING_DATE_UTC-eng: 2019-04-10 18:08:23
    _STATISTICS_TAGS-eng: BPS DURATION NUMBER_OF_FRAMES NUMBER_OF_BYTES
    Stream #0:15(eng): Subtitle: subrip (default)
    Metadata:
    title : English-SRT
    BPS-eng : 39
    DURATION-eng : 01:46:36.890000000
    NUMBER_OF_FRAMES-eng: 884
    NUMBER_OF_BYTES-eng: 31466
    _STATISTICS_WRITING_APP-eng: mkvmerge v32.0.0 ('Astral Progressions') 64-bit
    _STATISTICS_WRITING_DATE_UTC-eng: 2019-04-10 18:08:23
    _STATISTICS_TAGS-eng: BPS DURATION NUMBER_OF_FRAMES NUMBER_OF_BYTES
    Stream #0:16(eng): Subtitle: subrip
    Metadata:
    title : English-SDH-SRT
    BPS-eng : 43
    DURATION-eng : 01:50:44.846000000
    NUMBER_OF_FRAMES-eng: 1006
    NUMBER_OF_BYTES-eng: 36411
    _STATISTICS_WRITING_APP-eng: mkvmerge v32.0.0 ('Astral Progressions') 64-bit
    _STATISTICS_WRITING_DATE_UTC-eng: 2019-04-10 18:08:23
    _STATISTICS_TAGS-eng: BPS DURATION NUMBER_OF_FRAMES NUMBER_OF_BYTES
    Stream #0:17(eng): Subtitle: hdmv_pgs_subtitle
    Metadata:
    title : English-PGS
    BPS-eng : 30079
    DURATION-eng : 01:50:44.846000000
    NUMBER_OF_FRAMES-eng: 2014
    NUMBER_OF_BYTES-eng: 24984261
    _STATISTICS_WRITING_APP-eng: mkvmerge v32.0.0 ('Astral Progressions') 64-bit
    _STATISTICS_WRITING_DATE_UTC-eng: 2019-04-10 18:08:23
    _STATISTICS_TAGS-eng: BPS DURATION NUMBER_OF_FRAMES NUMBER_OF_BYTES
    Stream #0:18(spa): Subtitle: hdmv_pgs_subtitle
    Metadata:
    title : Spanish-PGS
    BPS-eng : 23779
    DURATION-eng : 01:54:25.776000000
    NUMBER_OF_FRAMES-eng: 1646
    NUMBER_OF_BYTES-eng: 20408012
    _STATISTICS_WRITING_APP-eng: mkvmerge v32.0.0 ('Astral Progressions') 64-bit
    _STATISTICS_WRITING_DATE_UTC-eng: 2019-04-10 18:08:23
    _STATISTICS_TAGS-eng: BPS DURATION NUMBER_OF_FRAMES NUMBER_OF_BYTES
    Stream #0:19(fre): Subtitle: hdmv_pgs_subtitle
    Metadata:
    title : French-PGS
    BPS-eng : 20821
    DURATION-eng : 01:54:26.485000000
    NUMBER_OF_FRAMES-eng: 1382
    NUMBER_OF_BYTES-eng: 17871672
    _STATISTICS_WRITING_APP-eng: mkvmerge v32.0.0 ('Astral Progressions') 64-bit
    _STATISTICS_WRITING_DATE_UTC-eng: 2019-04-10 18:08:23
    _STATISTICS_TAGS-eng: BPS DURATION NUMBER_OF_FRAMES NUMBER_OF_BYTES
    Stream #0:20(spa): Subtitle: hdmv_pgs_subtitle
    Metadata:
    title : Spanish-PGS
    BPS-eng : 22321
    DURATION-eng : 01:51:21.342000000
    NUMBER_OF_FRAMES-eng: 1550
    NUMBER_OF_BYTES-eng: 18642174
    _STATISTICS_WRITING_APP-eng: mkvmerge v32.0.0 ('Astral Progressions') 64-bit
    _STATISTICS_WRITING_DATE_UTC-eng: 2019-04-10 18:08:23
    _STATISTICS_TAGS-eng: BPS DURATION NUMBER_OF_FRAMES NUMBER_OF_BYTES
    Stream #0:21(dan): Subtitle: hdmv_pgs_subtitle
    Metadata:
    title : Danish-PGS
    BPS-eng : 19023
    DURATION-eng : 01:54:26.485000000
    NUMBER_OF_FRAMES-eng: 1500
    NUMBER_OF_BYTES-eng: 16328239
    _STATISTICS_WRITING_APP-eng: mkvmerge v32.0.0 ('Astral Progressions') 64-bit
    _STATISTICS_WRITING_DATE_UTC-eng: 2019-04-10 18:08:23
    _STATISTICS_TAGS-eng: BPS DURATION NUMBER_OF_FRAMES NUMBER_OF_BYTES
    Stream #0:22(dut): Subtitle: hdmv_pgs_subtitle
    Metadata:
    title : Dutch-PGS
    BPS-eng : 18545
    DURATION-eng : 01:51:21.091000000
    NUMBER_OF_FRAMES-eng: 1244
    NUMBER_OF_BYTES-eng: 15487956
    _STATISTICS_WRITING_APP-eng: mkvmerge v32.0.0 ('Astral Progressions') 64-bit
    _STATISTICS_WRITING_DATE_UTC-eng: 2019-04-10 18:08:23
    _STATISTICS_TAGS-eng: BPS DURATION NUMBER_OF_FRAMES NUMBER_OF_BYTES
    Stream #0:23(fin): Subtitle: hdmv_pgs_subtitle
    Metadata:
    title : Finnish-PGS
    BPS-eng : 21755
    DURATION-eng : 01:51:21.342000000
    NUMBER_OF_FRAMES-eng: 1390
    NUMBER_OF_BYTES-eng: 18169202
    _STATISTICS_WRITING_APP-eng: mkvmerge v32.0.0 ('Astral Progressions') 64-bit
    _STATISTICS_WRITING_DATE_UTC-eng: 2019-04-10 18:08:23
    _STATISTICS_TAGS-eng: BPS DURATION NUMBER_OF_FRAMES NUMBER_OF_BYTES
    Stream #0:24(ger): Subtitle: hdmv_pgs_subtitle
    Metadata:
    title : German-PGS
    BPS-eng : 24641
    DURATION-eng : 01:51:21.342000000
    NUMBER_OF_FRAMES-eng: 1550
    NUMBER_OF_BYTES-eng: 20579626
    _STATISTICS_WRITING_APP-eng: mkvmerge v32.0.0 ('Astral Progressions') 64-bit
    _STATISTICS_WRITING_DATE_UTC-eng: 2019-04-10 18:08:23
    _STATISTICS_TAGS-eng: BPS DURATION NUMBER_OF_FRAMES NUMBER_OF_BYTES
    Stream #0:25(ita): Subtitle: hdmv_pgs_subtitle
    Metadata:
    title : Italian-PGS
    BPS-eng : 22164
    DURATION-eng : 01:51:21.342000000
    NUMBER_OF_FRAMES-eng: 1518
    NUMBER_OF_BYTES-eng: 18510846
    _STATISTICS_WRITING_APP-eng: mkvmerge v32.0.0 ('Astral Progressions') 64-bit
    _STATISTICS_WRITING_DATE_UTC-eng: 2019-04-10 18:08:23
    _STATISTICS_TAGS-eng: BPS DURATION NUMBER_OF_FRAMES NUMBER_OF_BYTES
    Stream #0:26(nor): Subtitle: hdmv_pgs_subtitle
    Metadata:
    title : Norwegian-PGS
    BPS-eng : 20780
    DURATION-eng : 01:51:21.342000000
    NUMBER_OF_FRAMES-eng: 1520
    NUMBER_OF_BYTES-eng: 17354923
    _STATISTICS_WRITING_APP-eng: mkvmerge v32.0.0 ('Astral Progressions') 64-bit
    _STATISTICS_WRITING_DATE_UTC-eng: 2019-04-10 18:08:23
    _STATISTICS_TAGS-eng: BPS DURATION NUMBER_OF_FRAMES NUMBER_OF_BYTES
    Stream #0:27(swe): Subtitle: hdmv_pgs_subtitle
    Metadata:
    title : Swedish-PGS
    BPS-eng : 21014
    DURATION-eng : 01:51:21.550000000
    NUMBER_OF_FRAMES-eng: 1514
    NUMBER_OF_BYTES-eng: 17551474
    _STATISTICS_WRITING_APP-eng: mkvmerge v32.0.0 ('Astral Progressions') 64-bit
    _STATISTICS_WRITING_DATE_UTC-eng: 2019-04-10 18:08:23
    _STATISTICS_TAGS-eng: BPS DURATION NUMBER_OF_FRAMES NUMBER_OF_BYTES
    Stream #0:28(chi): Subtitle: hdmv_pgs_subtitle
    Metadata:
    title : Chinese-PGS
    BPS-eng : 15595
    DURATION-eng : 01:51:21.633000000
    NUMBER_OF_FRAMES-eng: 1531
    NUMBER_OF_BYTES-eng: 13025388
    _STATISTICS_WRITING_APP-eng: mkvmerge v32.0.0 ('Astral Progressions') 64-bit
    _STATISTICS_WRITING_DATE_UTC-eng: 2019-04-10 18:08:23
    _STATISTICS_TAGS-eng: BPS DURATION NUMBER_OF_FRAMES NUMBER_OF_BYTES
    Stream #0:29(cze): Subtitle: hdmv_pgs_subtitle
    Metadata:
    title : Czech-PGS
    BPS-eng : 19360
    DURATION-eng : 01:51:38.192000000
    NUMBER_OF_FRAMES-eng: 1448
    NUMBER_OF_BYTES-eng: 16210308
    _STATISTICS_WRITING_APP-eng: mkvmerge v32.0.0 ('Astral Progressions') 64-bit
    _STATISTICS_WRITING_DATE_UTC-eng: 2019-04-10 18:08:23
    _STATISTICS_TAGS-eng: BPS DURATION NUMBER_OF_FRAMES NUMBER_OF_BYTES
    Stream #0:30(kor): Subtitle: hdmv_pgs_subtitle
    Metadata:
    title : Korean-PGS
    BPS-eng : 14874
    DURATION-eng : 01:51:38.191000000
    NUMBER_OF_FRAMES-eng: 1508
    NUMBER_OF_BYTES-eng: 12454233
    _STATISTICS_WRITING_APP-eng: mkvmerge v32.0.0 ('Astral Progressions') 64-bit
    _STATISTICS_WRITING_DATE_UTC-eng: 2019-04-10 18:08:23
    _STATISTICS_TAGS-eng: BPS DURATION NUMBER_OF_FRAMES NUMBER_OF_BYTES
    Stream #0:31(chi): Subtitle: hdmv_pgs_subtitle
    Metadata:
    title : Chinese-pgs
    BPS-eng : 14211
    DURATION-eng : 01:51:37.733000000
    NUMBER_OF_FRAMES-eng: 1536
    NUMBER_OF_BYTES-eng: 11897749
    _STATISTICS_WRITING_APP-eng: mkvmerge v32.0.0 ('Astral Progressions') 64-bit
    _STATISTICS_WRITING_DATE_UTC-eng: 2019-04-10 18:08:23
    _STATISTICS_TAGS-eng: BPS DURATION NUMBER_OF_FRAMES NUMBER_OF_BYTES
    Stream #0:32(pol): Subtitle: hdmv_pgs_subtitle
    Metadata:
    title : Polihs-PGS
    BPS-eng : 19274
    DURATION-eng : 01:54:44.503000000
    NUMBER_OF_FRAMES-eng: 1376
    NUMBER_OF_BYTES-eng: 16586586
    _STATISTICS_WRITING_APP-eng: mkvmerge v32.0.0 ('Astral Progressions') 64-bit
    _STATISTICS_WRITING_DATE_UTC-eng: 2019-04-10 18:08:23
    _STATISTICS_TAGS-eng: BPS DURATION NUMBER_OF_FRAMES NUMBER_OF_BYTES
    Stream #0:33(tha): Subtitle: hdmv_pgs_subtitle
    Metadata:
    title : Thai-PGS
    BPS-eng : 16969
    DURATION-eng : 01:54:43.460000000
    NUMBER_OF_FRAMES-eng: 1524
    NUMBER_OF_BYTES-eng: 14601173
    _STATISTICS_WRITING_APP-eng: mkvmerge v32.0.0 ('Astral Progressions') 64-bit
    _STATISTICS_WRITING_DATE_UTC-eng: 2019-04-10 18:08:23
    _STATISTICS_TAGS-eng: BPS DURATION NUMBER_OF_FRAMES NUMBER_OF_BYTES
    Stream #0:34(eng): Subtitle: hdmv_pgs_subtitle
    Metadata:
    title : English-COMMENTARY-PGS
    BPS-eng : 85116
    DURATION-eng : 01:56:20.390000000
    NUMBER_OF_FRAMES-eng: 3857
    NUMBER_OF_BYTES-eng: 74267993
    _STATISTICS_WRITING_APP-eng: mkvmerge v32.0.0 ('Astral Progressions') 64-bit
    _STATISTICS_WRITING_DATE_UTC-eng: 2019-04-10 18:08:23
    _STATISTICS_TAGS-eng: BPS DURATION NUMBER_OF_FRAMES NUMBER_OF_BYTES
    Stream #0:35(fre): Subtitle: hdmv_pgs_subtitle
    Metadata:
    title : French-COMMENTARY-PGS
    BPS-eng : 74588
    DURATION-eng : 01:56:24.394000000
    NUMBER_OF_FRAMES-eng: 3769
    NUMBER_OF_BYTES-eng: 65119684
    _STATISTICS_WRITING_APP-eng: mkvmerge v32.0.0 ('Astral Progressions') 64-bit
    _STATISTICS_WRITING_DATE_UTC-eng: 2019-04-10 18:08:23
    _STATISTICS_TAGS-eng: BPS DURATION NUMBER_OF_FRAMES NUMBER_OF_BYTES
    Stream #0:36(spa): Subtitle: hdmv_pgs_subtitle
    Metadata:
    title : Spanish-COMMENTARY-PGS
    BPS-eng : 70525
    DURATION-eng : 01:56:20.390000000
    NUMBER_OF_FRAMES-eng: 3733
    NUMBER_OF_BYTES-eng: 61537188
    _STATISTICS_WRITING_APP-eng: mkvmerge v32.0.0 ('Astral Progressions') 64-bit
    _STATISTICS_WRITING_DATE_UTC-eng: 2019-04-10 18:08:23
    _STATISTICS_TAGS-eng: BPS DURATION NUMBER_OF_FRAMES NUMBER_OF_BYTES
    Stream #0:37(ger): Subtitle: hdmv_pgs_subtitle
    Metadata:
    title : German-COMMENTARY-PGS
    BPS-eng : 85391
    DURATION-eng : 01:56:20.390000000
    NUMBER_OF_FRAMES-eng: 3935
    NUMBER_OF_BYTES-eng: 74508237
    _STATISTICS_WRITING_APP-eng: mkvmerge v32.0.0 ('Astral Progressions') 64-bit
    _STATISTICS_WRITING_DATE_UTC-eng: 2019-04-10 18:08:23
    _STATISTICS_TAGS-eng: BPS DURATION NUMBER_OF_FRAMES NUMBER_OF_BYTES
    Stream #0:38(ita): Subtitle: hdmv_pgs_subtitle
    Metadata:
    title : Italian-COMMENTARY-PGS
    BPS-eng : 76051
    DURATION-eng : 01:56:20.390000000
    NUMBER_OF_FRAMES-eng: 3731
    NUMBER_OF_BYTES-eng: 66358386
    _STATISTICS_WRITING_APP-eng: mkvmerge v32.0.0 ('Astral Progressions') 64-bit
    _STATISTICS_WRITING_DATE_UTC-eng: 2019-04-10 18:08:23
    _STATISTICS_TAGS-eng: BPS DURATION NUMBER_OF_FRAMES NUMBER_OF_BYTES
    Stream #0:39(eng): Subtitle: hdmv_pgs_subtitle
    Metadata:
    title : English-COMMENTARY-PGS
    BPS-eng : 54136
    DURATION-eng : 01:55:54.448000000
    NUMBER_OF_FRAMES-eng: 2892
    NUMBER_OF_BYTES-eng: 47061538
    _STATISTICS_WRITING_APP-eng: mkvmerge v32.0.0 ('Astral Progressions') 64-bit
    _STATISTICS_WRITING_DATE_UTC-eng: 2019-04-10 18:08:23
    _STATISTICS_TAGS-eng: BPS DURATION NUMBER_OF_FRAMES NUMBER_OF_BYTES
    Stream #0:40(fre): Subtitle: hdmv_pgs_subtitle
    Metadata:
    title : French-COMMENTARY-PGS
    BPS-eng : 47929
    DURATION-eng : 01:56:13.467000000
    NUMBER_OF_FRAMES-eng: 2814
    NUMBER_OF_BYTES-eng: 41779177
    _STATISTICS_WRITING_APP-eng: mkvmerge v32.0.0 ('Astral Progressions') 64-bit
    _STATISTICS_WRITING_DATE_UTC-eng: 2019-04-10 18:08:23
    _STATISTICS_TAGS-eng: BPS DURATION NUMBER_OF_FRAMES NUMBER_OF_BYTES
    Stream #0:41(spa): Subtitle: hdmv_pgs_subtitle
    Metadata:
    title : Spanish-COMMENTARY-PGS
    BPS-eng : 49613
    DURATION-eng : 01:56:13.592000000
    NUMBER_OF_FRAMES-eng: 2808
    NUMBER_OF_BYTES-eng: 43247652
    _STATISTICS_WRITING_APP-eng: mkvmerge v32.0.0 ('Astral Progressions') 64-bit
    _STATISTICS_WRITING_DATE_UTC-eng: 2019-04-10 18:08:23
    _STATISTICS_TAGS-eng: BPS DURATION NUMBER_OF_FRAMES NUMBER_OF_BYTES
    Stream #0:42(ger): Subtitle: hdmv_pgs_subtitle
    Metadata:
    title : German-COMMENTARY-PGS
    BPS-eng : 57329
    DURATION-eng : 01:56:13.592000000
    NUMBER_OF_FRAMES-eng: 2808
    NUMBER_OF_BYTES-eng: 49974218
    _STATISTICS_WRITING_APP-eng: mkvmerge v32.0.0 ('Astral Progressions') 64-bit
    _STATISTICS_WRITING_DATE_UTC-eng: 2019-04-10 18:08:23
    _STATISTICS_TAGS-eng: BPS DURATION NUMBER_OF_FRAMES NUMBER_OF_BYTES
    Stream #0:43(ita): Subtitle: hdmv_pgs_subtitle
    Metadata:
    title : Italian-COMMENTARY-PGS
    BPS-eng : 52662
    DURATION-eng : 01:56:13.592000000
    NUMBER_OF_FRAMES-eng: 2800
    NUMBER_OF_BYTES-eng: 45905713
    _STATISTICS_WRITING_APP-eng: mkvmerge v32.0.0 ('Astral Progressions') 64-bit
    _STATISTICS_WRITING_DATE_UTC-eng: 2019-04-10 18:08:23
    _STATISTICS_TAGS-eng: BPS DURATION NUMBER_OF_FRAMES NUMBER_OF_BYTES
    Stream #0:44: Video: mjpeg, yuvj444p(pc, bt470bg/unknown/unknown), 1067x600, 90k tbr, 90k tbn, 90k tbc
    Metadata:
    filename : cover_land.jpg
    mimetype : image/jpeg
    Stream #0:45: Video: mjpeg, yuvj444p(pc, bt470bg/unknown/unknown), 120x176, 90k tbr, 90k tbn, 90k tbc
    Metadata:
    filename : small_cover.jpg
    mimetype : image/jpeg
    Stream #0:46: Video: mjpeg, yuvj444p(pc, bt470bg/unknown/unknown), 213x120, 90k tbr, 90k tbn, 90k tbc
    Metadata:
    filename : small_cover_land.jpg
    mimetype : image/jpeg
    Stream #0:47: Video: mjpeg, yuvj444p(pc, bt470bg/unknown/unknown), 600x882, 90k tbr, 90k tbn, 90k tbc
    Metadata:
    filename : cover.jpg
    mimetype : image/jpeg
    At least one output file must be specified

    <MEZZMO>: Child process ended with code: 109, ExitCode=1


    ---> DB Level Info: 153, 2
    ---> Frame rate: 23.98
    ---> Aspect ratio: 16:9 PAR=1:1
    ---> Duration: 01:56:37

Similar Threads

  1. Mezzmo does not play audio for MKV file
    By kyg2202 in forum Mezzmo Questions and Support
    Replies: 14
    Last Post: 08-17-2011, 10:07 AM
  2. Mezzmo Playing Wrong Audio Track ...
    By jeffreybc55 in forum Mezzmo Questions and Support
    Replies: 1
    Last Post: 07-06-2011, 09:22 AM
  3. Mezzmo and Samsung c5700 mkv audio not transcoding
    By t1b1m in forum Mezzmo Questions and Support
    Replies: 7
    Last Post: 05-05-2011, 09:40 AM
  4. Audio Codec detection and transcoding problem (Mostly avi with VBR)
    By christianclavet in forum Mezzmo Questions and Support
    Replies: 1
    Last Post: 02-09-2011, 08:57 AM
  5. Transcoding video problem? DSM-320 drops audio and freezes momentarily.
    By Comex in forum Mezzmo Questions and Support
    Replies: 4
    Last Post: 11-04-2010, 08:46 AM

Tags for this Thread

Bookmarks

Posting Permissions

  • You may not post new threads
  • You may not post replies
  • You may not post attachments
  • You may not edit your posts
  •