Results 1 to 6 of 6

Thread: Samsung B TV not playing files with same format

  1. #1

    Default Samsung B TV not playing files with same format

    Hello all,

    I am going crazzy with this problem:

    I do a test with a blu-ray that I own and using aiseesoft blu-ray ripper I perform a trial on a movie and convert a couple of minutes to mp4.

    this is the file:

    ffmpeg version N-33093-gb4483a5, Copyright (c) 2000-2011 the FFmpeg developers
    built on Sep 29 2011 14:54:32 with gcc 4.4.2

    Seems stream 0 codec frame rate differs from container frame rate: 59.94 (60000/1001) -> 29.97 (2997/100)
    Input #0, mov,mp4,m4a,3gp,3g2,mj2, from 'C:\Users\Rafa\Videos\Harry Potter\xbox h264 1080.mp4':
    Metadata:
    major_brand : isom
    minor_version : 512
    compatible_brands: isomiso2avc1mp41
    creation_time : 1970-01-01 00:00:00
    encoder : Lavf52.39.0
    Duration: 00:00:57.72, start: 0.000000, bitrate: 4130 kb/s
    Stream #0:0(und): Video: h264 (Main) (avc1 / 0x31637661), yuv420p, 1920x1080 [SAR 1:1 DAR 16:9], 3997 kb/s, 29.97 fps, 29.97 tbr, 2997 tbn, 59.94 tbc
    Metadata:
    creation_time : 1970-01-01 00:00:00
    Stream #0:1(und): Audio: aac (mp4a / 0x6134706D), 44100 Hz, stereo, s16, 128 kb/s
    Metadata:
    creation_time : 1970-01-01 00:00:00
    At least one output file must be specified


    ---> DB Level Info: 40, 77
    ---> Frame rate: 29.97
    ---> Aspect ratio: 16:9


    which runs perfectly, ffw, rew, everything.

    Then, if I convert the entire movie using same program, version, setting, everything the same, it says format not supported (transcoding always disabled)

    This file:

    ffmpeg version N-33093-gb4483a5, Copyright (c) 2000-2011 the FFmpeg developers
    built on Sep 29 2011 14:54:32 with gcc 4.4.2

    Seems stream 0 codec frame rate differs from container frame rate: 59.94 (60000/1001) -> 29.97 (2997/100)
    Input #0, mov,mp4,m4a,3gp,3g2,mj2, from 'C:\Users\Rafa\Videos\Harry Potter\rafa.mp4':
    Metadata:
    major_brand : isom
    minor_version : 512
    compatible_brands: isomiso2avc1mp41
    creation_time : 1970-01-01 00:00:00
    encoder : Lavf52.39.0
    Duration: 02:40:56.15, start: 0.000000, bitrate: 4134 kb/s
    Stream #0:0(und): Video: h264 (Main) (avc1 / 0x31637661), yuv420p, 1920x1080 [SAR 1:1 DAR 16:9], 3999 kb/s, 29.97 fps, 29.97 tbr, 2997 tbn, 59.94 tbc
    Metadata:
    creation_time : 1970-01-01 00:00:00
    Stream #0:1(und): Audio: aac (mp4a / 0x6134706D), 44100 Hz, stereo, s16, 128 kb/s
    Metadata:
    creation_time : 1970-01-01 00:00:00
    At least one output file must be specified


    ---> DB Level Info: 40, 77
    ---> Frame rate: 29,97
    ---> Aspect ratio: 16:9


    Any ideas ?

    Best regards,

    Rafa

  2. #2
    Join Date
    Nov 2007
    Location
    Melbourne, Australia
    Posts
    11,616

    Default

    Did you re-add the new file to Mezzmo or just replaced the old one? If the latter, then Mezzmo will send information about the previous file to the device, which may cause it to break.

    Mezzmo Android: Install it on your tablet, smartphone, Android TV or Amazon Fire to browse and stream files from your Mezzmo library to all your devices. Full details at http://www.conceiva.com/products/mez...mo_android.asp
    Mezzmo for Kodi Add-on: Install it into Kodi to stream files from your Mezzmo library directly in Kodi. Full details at http://www.mezzmo.com/wiki/doku.php?...odi_user_guide
    Mezzmo for Roku App: Install it onto your Roku to stream files from your Mezzmo library. Full details at http://www.mezzmo.com/wiki/doku.php?...oku_user_guide
    Wiki: User Guides & Reference Manual at http://www.mezzmo.com/wiki
    Facebook: http://www.facebook.com/Mezzmo.DLNA.Server
    Twitter: https://twitter.com/conceiva_mezzmo
    Web: http://www.mezzmo.com

  3. #3

    Default

    Hi Dennis, thanks for your answer, I thought it could be something like that so I have tried both things.

    I have tried to use another encoding program (AVS video encoder), now results are aven funnier....

    If I encode 5, 10, 13 minutes of film (haven't tried longer) it works perfectly, if I encode the entire movie (2 hours 40 mins) I can see the video, I can ffw and rew but no sound, it says at the beginning "audio codec not supported".
    My settings, as I said, exactly the same than for the 5 minutes trial (audio codec mpeg-2/4 - 44100 hx - 16 bit - 64 kbps - stereo).

    Very frustrating..... Don't get me wrong, I am blaming my tv, but very frustrating...

    Best regards,

    Rafa

  4. #4
    Join Date
    Nov 2007
    Location
    Melbourne, Australia
    Posts
    11,616

    Default

    Hi Rafa,

    I would first blame the encoding software actually. A lot of these encoders will use the same libraries under the hood, so they may produce similar results. To check, see the FFmpeg output for the file created by AVS and check the version of encoder in the metadata (or post here and I'll take a look).

    Mezzmo Android: Install it on your tablet, smartphone, Android TV or Amazon Fire to browse and stream files from your Mezzmo library to all your devices. Full details at http://www.conceiva.com/products/mez...mo_android.asp
    Mezzmo for Kodi Add-on: Install it into Kodi to stream files from your Mezzmo library directly in Kodi. Full details at http://www.mezzmo.com/wiki/doku.php?...odi_user_guide
    Mezzmo for Roku App: Install it onto your Roku to stream files from your Mezzmo library. Full details at http://www.mezzmo.com/wiki/doku.php?...oku_user_guide
    Wiki: User Guides & Reference Manual at http://www.mezzmo.com/wiki
    Facebook: http://www.facebook.com/Mezzmo.DLNA.Server
    Twitter: https://twitter.com/conceiva_mezzmo
    Web: http://www.mezzmo.com

  5. #5

    Default

    Thanks again for your answer Dennis,

    Any recommendation on encoding software ? I would gladly try something different.

    Here is the info of a 1 minute encoding using avs, works like a charm.... again, full movie does not.

    ffmpeg version N-33093-gb4483a5, Copyright (c) 2000-2011 the FFmpeg developers
    built on Sep 29 2011 14:54:32 with gcc 4.4.2

    Seems stream 0 codec frame rate differs from container frame rate: 47.95 (48000/1001) -> 23.98 (2997/125)
    Input #0, mov,mp4,m4a,3gp,3g2,mj2, from 'C:\Users\Rafa\Videos\Harry Potter\Sin título.mp4':
    Metadata:
    major_brand : mp42
    minor_version : 0
    compatible_brands: mp42isom
    creation_time : 2011-10-16 23:26:44
    Duration: 00:01:24.16, start: 0.000000, bitrate: 1319 kb/s
    Stream #0:0(eng): Video: h264 (Main) (avc1 / 0x31637661), yuv420p, 1920x1080 [SAR 1:1 DAR 16:9], 1188 kb/s, 23.98 fps, 23.98 tbr, 23976 tbn, 47.95 tbc
    Metadata:
    creation_time : 2011-10-16 23:26:44
    Stream #0:1(eng): Audio: aac (mp4a / 0x6134706D), 44100 Hz, stereo, s16, 125 kb/s
    Metadata:
    creation_time : 2011-10-16 23:26:44
    At least one output file must be specified


    ---> DB Level Info: 51, 77
    ---> Frame rate: 23,98
    ---> Aspect ratio: 16:9


    Best regards,

    Rafa

  6. #6
    Join Date
    Nov 2007
    Location
    Melbourne, Australia
    Posts
    11,616

    Default

    Well, I haven't tried this software myself, but one person had a very similar issue and used XenonMKV to resolve it. Perhaps give that a try and see if that works for you as well.

    Mezzmo Android: Install it on your tablet, smartphone, Android TV or Amazon Fire to browse and stream files from your Mezzmo library to all your devices. Full details at http://www.conceiva.com/products/mez...mo_android.asp
    Mezzmo for Kodi Add-on: Install it into Kodi to stream files from your Mezzmo library directly in Kodi. Full details at http://www.mezzmo.com/wiki/doku.php?...odi_user_guide
    Mezzmo for Roku App: Install it onto your Roku to stream files from your Mezzmo library. Full details at http://www.mezzmo.com/wiki/doku.php?...oku_user_guide
    Wiki: User Guides & Reference Manual at http://www.mezzmo.com/wiki
    Facebook: http://www.facebook.com/Mezzmo.DLNA.Server
    Twitter: https://twitter.com/conceiva_mezzmo
    Web: http://www.mezzmo.com

Similar Threads

  1. Randomly playing video files in a folder (Usefull for music video files)
    By Jike in forum Mezzmo Wish List and Feedback
    Replies: 7
    Last Post: 12-28-2011, 03:04 PM
  2. Samsung C5500 stops playing files every now and then
    By blastman in forum Mezzmo Questions and Support
    Replies: 7
    Last Post: 08-22-2011, 08:56 AM
  3. Unsupported file format with Samsung HT-C5500
    By Logan80 in forum Mezzmo Questions and Support
    Replies: 1
    Last Post: 08-18-2011, 04:20 PM
  4. Mezzmo stutters playing Samsung .MP4 files.
    By stevey396 in forum Mezzmo Questions and Support
    Replies: 3
    Last Post: 07-19-2011, 09:12 AM
  5. Random MKV's not playing (Not Supported File Format)
    By Josip in forum Mezzmo Questions and Support
    Replies: 11
    Last Post: 11-01-2010, 04:56 PM

Tags for this Thread

Bookmarks

Posting Permissions

  • You may not post new threads
  • You may not post replies
  • You may not post attachments
  • You may not edit your posts
  •