Results 1 to 2 of 2

Thread: ts File - No Audio Sometimes

  1. #1
    Join Date
    Oct 2011
    Posts
    1

    Default ts File - No Audio Sometimes

    I have a ts 1920x1080 DD5.1 video that won't send audio to my Samsung D Series TV. Crazy thing is that the audio will only work about fifty percent of the time even in Windows Media Player. I've used the same hardware to capture numerous HD streams, and I don't know what the problem might be. I've attached the ffmpeg info, and I seem to have the latest ffmpeg build available. Any ideas?

    ffmpeg version N-33093-gb4483a5, Copyright (c) 2000-2011 the FFmpeg developers
    built on Sep 29 2011 14:54:32 with gcc 4.4.2
    [mpegts @ 01378400] Continuity check failed for pid 0 expected 1 got 0
    [mpegts @ 01378400] Continuity check failed for pid 31 expected 1 got 0
    [mpegts @ 01378400] Continuity check failed for pid 4113 expected 8 got 0
    [h264 @ 033ea340] error while decoding MB 20 66, bytestream (-24)
    [h264 @ 033ea340] concealing 269 DC, 269 AC, 269 MV errors
    [aac @ 0137fa40] channel element 0.5 is not allocated
    [aac @ 0137fa40] More than one AAC RDB per ADTS frame is not implemented. Update your FFmpeg version to the newest one from Git. If the problem still occurs, it means that your file has a feature which has not been implemented.
    [aac @ 0137fa40] Error decoding AAC frame header.
    [aac @ 0137fa40] More than one AAC RDB per ADTS frame is not implemented. Update your FFmpeg version to the newest one from Git. If the problem still occurs, it means that your file has a feature which has not been implemented.
    [aac @ 0137fa40] Error decoding AAC frame header.
    [aac @ 0137fa40] channel element 0.0 is not allocated
    [aac @ 0137fa40] channel element 1.1 is not allocated
    [aac @ 0137fa40] channel element 3.11 is not allocated
    [aac @ 0137fa40] More than one AAC RDB per ADTS frame is not implemented. Update your FFmpeg version to the newest one from Git. If the problem still occurs, it means that your file has a feature which has not been implemented.
    [aac @ 0137fa40] Error decoding AAC frame header.
    [aac @ 0137fa40] invalid band type
    [aac @ 0137fa40] More than one AAC RDB per ADTS frame is not implemented. Update your FFmpeg version to the newest one from Git. If the problem still occurs, it means that your file has a feature which has not been implemented.
    [aac @ 0137fa40] Error decoding AAC frame header.
    [aac @ 0137fa40] channel element 2.13 is not allocated
    [aac @ 0137fa40] More than one AAC RDB per ADTS frame is not implemented. Update your FFmpeg version to the newest one from Git. If the problem still occurs, it means that your file has a feature which has not been implemented.
    [aac @ 0137fa40] Error decoding AAC frame header.
    [aac @ 0137fa40] channel element 3.12 is not allocated
    [aac @ 0137fa40] More than one AAC RDB per ADTS frame is not implemented. Update your FFmpeg version to the newest one from Git. If the problem still occurs, it means that your file has a feature which has not been implemented.
    [aac @ 0137fa40] Error decoding AAC frame header.
    [aac @ 0137fa40] Sample rate index in program config element does not match the sample rate index configured by the container.
    [aac @ 0137fa40] Not evaluating a further program_config_element as this construct is dubious at best.
    [mpegts @ 01378400] max_analyze_duration 5000000 reached at 13346956
    Input #0, mpegts, from 'E:\Movies\Transformers - Dark of the Moon.TS':
    Duration: 02:34:21.03, start: 55.857378, bitrate: 11145 kb/s
    Program 1
    Stream #0:0[0x1011]: Video: h264 (High) (HDMV / 0x564D4448), yuv420p, 1920x1080 [SAR 1:1 DAR 16:9], 29.97 fps, 29.97 tbr, 90k tbn, 59.94 tbc
    Stream #0:1[0x1100]: Audio: aac (AC-3 / 0x332D4341), 22050 Hz, mono, s16, 1 kb/s
    At least one output file must be specified


    ---> DB Level Info: 40, 100
    ---> Frame rate: 29.97
    ---> Aspect ratio: 16:9
    Attached Files Attached Files

  2. #2
    Join Date
    Nov 2007
    Location
    Melbourne, Australia
    Posts
    11,646

    Default

    That file should be sent natively to the TV (if you're using the "Samsung D" device profile), so I suspect the TV's player fails to decode it (especially if WMP fails to play it properly as well). My guess is that the recording settings are not optimal or there's a bug in the recording software. Check if you've got all the latest drivers and software updates for your capture equipment.

    Mezzmo Android: Install it on your tablet, smartphone, Android TV or Amazon Fire to browse and stream files from your Mezzmo library to all your devices. Full details at http://www.conceiva.com/products/mez...mo_android.asp
    Mezzmo for Kodi Add-on: Install it into Kodi to stream files from your Mezzmo library directly in Kodi. Full details at http://www.mezzmo.com/wiki/doku.php?...odi_user_guide
    Mezzmo for Roku App: Install it onto your Roku to stream files from your Mezzmo library. Full details at http://www.mezzmo.com/wiki/doku.php?...oku_user_guide
    Wiki: User Guides & Reference Manual at http://www.mezzmo.com/wiki
    Facebook: http://www.facebook.com/Mezzmo.DLNA.Server
    Twitter: https://twitter.com/conceiva_mezzmo
    Web: http://www.mezzmo.com

Similar Threads

  1. Mezzmo does not play audio for MKV file
    By kyg2202 in forum Mezzmo Questions and Support
    Replies: 14
    Last Post: 08-17-2011, 10:07 AM
  2. Is there a way to select which audio stream is sent in a Video file.
    By itsmydamnation in forum Mezzmo Questions and Support
    Replies: 2
    Last Post: 12-31-2010, 11:36 AM
  3. How do I get 5.1 audio
    By adiamond in forum Mezzmo Questions and Support
    Replies: 1
    Last Post: 12-16-2010, 10:09 AM
  4. Play video file but lost audio after 30 sec
    By dtarin in forum Mezzmo Questions and Support
    Replies: 1
    Last Post: 09-27-2010, 10:09 AM
  5. How to keep DTS stream from MKV file to PS3, and how to select audio stream
    By wishful_st in forum Mezzmo Questions and Support
    Replies: 5
    Last Post: 09-10-2010, 05:27 PM

Tags for this Thread

Bookmarks

Posting Permissions

  • You may not post new threads
  • You may not post replies
  • You may not post attachments
  • You may not edit your posts
  •