Results 1 to 6 of 6

Thread: aspect ratio problem

  1. #1
    Join Date
    Oct 2011
    Posts
    4

    Default aspect ratio problem

    Trying to stream video to an ONKYO BD-SP809 and the video on certain files has a distorted aspect ratio and the picture is shifted to the right side of the screen. Any help will be much appreciated.

  2. #2
    Join Date
    Nov 2007
    Location
    Melbourne, Australia
    Posts
    11,616

    Default

    Please right-click on one such file in Mezzmo and post the output of the "Get FFmpeg Information" command, so that I could see whether the file is being transcoded or sent natively. Also, which device profile are you using?

    Mezzmo Android: Install it on your tablet, smartphone, Android TV or Amazon Fire to browse and stream files from your Mezzmo library to all your devices. Full details at http://www.conceiva.com/products/mez...mo_android.asp
    Mezzmo for Kodi Add-on: Install it into Kodi to stream files from your Mezzmo library directly in Kodi. Full details at http://www.mezzmo.com/wiki/doku.php?...odi_user_guide
    Mezzmo for Roku App: Install it onto your Roku to stream files from your Mezzmo library. Full details at http://www.mezzmo.com/wiki/doku.php?...oku_user_guide
    Wiki: User Guides & Reference Manual at http://www.mezzmo.com/wiki
    Facebook: http://www.facebook.com/Mezzmo.DLNA.Server
    Twitter: https://twitter.com/conceiva_mezzmo
    Web: http://www.mezzmo.com

  3. #3
    Join Date
    Oct 2011
    Posts
    4

    Default

    ffmpeg version N-33781-g35674a2, Copyright (c) 2000-2011 the FFmpeg developers
    built on Oct 19 2011 10:31:16 with gcc 4.6.1
    configuration: --enable-memalign-hack --arch=x86 --target-os=mingw32 --cross-prefix=i686-w64-mingw32- --enable-static --disable-shared --enable-zlib --disable-postproc --prefix=/media/ffmpeg --enable-libmp3lame --enable-libx264 --enable-gpl --extra-libs='-lx264 -lpthread' --enable-runtime-cpudetect --extra-cflags=-I/home/dennis/cc/include --extra-ldflags=-L/home/dennis/cc/lib --pkg-config=pkg-config
    libavutil 51. 22. 0 / 51. 22. 0
    libavcodec 53. 21. 0 / 53. 21. 0
    libavformat 53. 16. 1 / 53. 16. 1
    libavdevice 53. 4. 0 / 53. 4. 0
    libavfilter 2. 44. 0 / 2. 44. 0
    libswscale 2. 1. 0 / 2. 1. 0
    [mpeg4 @ 018EA120] Invalid and inefficient vfw-avi packed B frames detected
    Input #0, avi, from 'H:\\Movies\Five.avi':
    Metadata:
    encoder : VirtualDubMod 1.5.10.3 | www.virtualdub-fr.org || (build 2550/release)
    Duration: 02:10:21.23, start: 0.000000, bitrate: 3956 kb/s
    Stream #0:0: Video: mpeg4 (Advanced Simple Profile) (XVID / 0x44495658), yuv420p, 1280x544 [SAR 1:1 DAR 40:17], 23.98 tbr, 23.98 tbn, 23.98 tbc
    Stream #0:1: Audio: ac3 ([0] [0][0] / 0x2000), 48000 Hz, 5.1(side), s16, 448 kb/s
    At least one output file must be specified


    ---> DB Level Info: 5, 15
    ---> Frame rate: 23.98
    ---> Aspect ratio: 40:17

  4. #4
    Join Date
    Oct 2011
    Posts
    4

    Default

    device profile sets to Generic Device (NTSC)

  5. #5
    Join Date
    Oct 2011
    Posts
    4

    Default

    I changed the device profile and that helped

  6. #6
    Join Date
    Nov 2007
    Location
    Melbourne, Australia
    Posts
    11,616

    Default

    Quote Originally Posted by Synseer View Post
    I changed the device profile and that helped
    So it works ok now? Are you using the Onkyo profile now?

    Mezzmo Android: Install it on your tablet, smartphone, Android TV or Amazon Fire to browse and stream files from your Mezzmo library to all your devices. Full details at http://www.conceiva.com/products/mez...mo_android.asp
    Mezzmo for Kodi Add-on: Install it into Kodi to stream files from your Mezzmo library directly in Kodi. Full details at http://www.mezzmo.com/wiki/doku.php?...odi_user_guide
    Mezzmo for Roku App: Install it onto your Roku to stream files from your Mezzmo library. Full details at http://www.mezzmo.com/wiki/doku.php?...oku_user_guide
    Wiki: User Guides & Reference Manual at http://www.mezzmo.com/wiki
    Facebook: http://www.facebook.com/Mezzmo.DLNA.Server
    Twitter: https://twitter.com/conceiva_mezzmo
    Web: http://www.mezzmo.com

Similar Threads

  1. wrong aspect ratio
    By cheeseball in forum Mezzmo Questions and Support
    Replies: 13
    Last Post: 01-29-2013, 03:30 PM
  2. Aspect ratio problem
    By Mawie in forum Mezzmo Questions and Support
    Replies: 24
    Last Post: 01-27-2012, 10:51 AM
  3. Noob question on Samsung LE40B65 aspect ratio
    By cabsandy in forum Mezzmo Questions and Support
    Replies: 7
    Last Post: 03-03-2011, 09:45 AM
  4. TX-P42GW20 aspect ratio
    By David.Hartmann in forum Mezzmo Questions and Support
    Replies: 1
    Last Post: 10-18-2010, 11:11 AM
  5. Wrong aspect ratio
    By Glmike in forum Mezzmo Questions and Support
    Replies: 1
    Last Post: 08-16-2010, 10:00 AM

Tags for this Thread

Bookmarks

Posting Permissions

  • You may not post new threads
  • You may not post replies
  • You may not post attachments
  • You may not edit your posts
  •