Results 1 to 4 of 4

Thread: "File not supported" with Mezzom; with Samsung PC Share Manager it works

  1. #1
    Join Date
    Nov 2011
    Posts
    22

    Default "File not supported" with Mezzom; with Samsung PC Share Manager it works

    I've two files that doesn't play on my Samsung LE40c579 when trying to stream them with Mezzmo although Samsung PC Share Manager plays them. Actually it seems that Share Manager has a problem with them too, since it takes 5-10 secons longer than usual to load them, I think it is a problem with some WMV files in general.

    For me it doesn't really matter because these are the only WMV files I have but I thought this could be interesting for you, to improve compatibility in general.



    The FFMPEG information, File 1:

    ffmpeg version N-33781-g35674a2, Copyright (c) 2000-2011 the FFmpeg developers
    built on Oct 19 2011 10:31:16 with gcc 4.6.1
    configuration: --enable-memalign-hack --arch=x86 --target-os=mingw32 --cross-prefix=i686-w64-mingw32- --enable-static --disable-shared --enable-zlib --disable-postproc --prefix=/media/ffmpeg --enable-libmp3lame --enable-libx264 --enable-gpl --extra-libs='-lx264 -lpthread' --enable-runtime-cpudetect --extra-cflags=-I/home/dennis/cc/include --extra-ldflags=-L/home/dennis/cc/lib --pkg-config=pkg-config
    libavutil 51. 22. 0 / 51. 22. 0
    libavcodec 53. 21. 0 / 53. 21. 0
    libavformat 53. 16. 1 / 53. 16. 1
    libavdevice 53. 4. 0 / 53. 4. 0
    libavfilter 2. 44. 0 / 2. 44. 0
    libswscale 2. 1. 0 / 2. 1. 0
    [wmv3 @ 012F8D20] Extra data: 8 bits left, value: 0
    [asf @ 012F8180] parser not found for codec wmav2, packets or times may be invalid.

    Seems stream 0 codec frame rate differs from container frame rate: 1000.00 (1000/1) -> 25.00 (25/1)
    Input #0, asf, from 'D:\File1.wmv':
    Metadata:
    artist : MediaCoder
    comment : Encoded by MediaCoder
    WMFSDKVersion : 12.0.7601.17514
    WMFSDKNeeded : 0.0.0.0000
    IsVBR : 0
    encoder : Lavf53.17.0
    Duration: 00:07:23.38, start: 0.000000, bitrate: 7190 kb/s
    Stream #0:0: Video: wmv3 (Main) (WMV3 / 0x33564D57), yuv420p, 1920x1080, 25 tbr, 1k tbn, 1k tbc
    Stream #0:1: Audio: wmav2 (a[1][0][0] / 0x0161), 44100 Hz, 2 channels, s16, 96 kb/s
    At least one output file must be specified


    ---> DB Level Info: -99, 1
    ---> Frame rate: 25,00
    ---> Aspect ratio:



    File 2:

    ffmpeg version N-33781-g35674a2, Copyright (c) 2000-2011 the FFmpeg developers
    built on Oct 19 2011 10:31:16 with gcc 4.6.1
    configuration: --enable-memalign-hack --arch=x86 --target-os=mingw32 --cross-prefix=i686-w64-mingw32- --enable-static --disable-shared --enable-zlib --disable-postproc --prefix=/media/ffmpeg --enable-libmp3lame --enable-libx264 --enable-gpl --extra-libs='-lx264 -lpthread' --enable-runtime-cpudetect --extra-cflags=-I/home/dennis/cc/include --extra-ldflags=-L/home/dennis/cc/lib --pkg-config=pkg-config
    libavutil 51. 22. 0 / 51. 22. 0
    libavcodec 53. 21. 0 / 53. 21. 0
    libavformat 53. 16. 1 / 53. 16. 1
    libavdevice 53. 4. 0 / 53. 4. 0
    libavfilter 2. 44. 0 / 2. 44. 0
    libswscale 2. 1. 0 / 2. 1. 0
    [wmv3 @ 003AF160] Extra data: 8 bits left, value: 0
    [asf @ 003A8160] parser not found for codec wmav2, packets or times may be invalid.

    Seems stream 1 codec frame rate differs from container frame rate: 1000.00 (1000/1) -> 25.00 (25/1)
    Input #0, asf, from 'D:\File2.wmv':
    Metadata:
    WMFSDKVersion : 12.0.7600.16385
    WMFSDKNeeded : 0.0.0.0000
    IsVBR : 0
    Duration: 00:28:43.42, start: 0.000000, bitrate: 8103 kb/s
    Stream #0:0: Audio: wmav2 (a[1][0][0] / 0x0161), 44100 Hz, 2 channels, s16, 96 kb/s
    Stream #0:1: Video: wmv3 (Main) (WMV3 / 0x33564D57), yuv420p, 1920x1080, 8000 kb/s, SAR 1:1 DAR 16:9, 25 tbr, 1k tbn, 1k tbc
    At least one output file must be specified


    ---> DB Level Info: -99, 1
    ---> Frame rate: 25,00
    ---> Aspect ratio: 16:9

  2. #2
    Join Date
    Nov 2007
    Location
    Melbourne, Australia
    Posts
    11,616

    Default

    Thank you for the file info - can you please try the "Samsung BDP" profile and see if those files play using that profile?

    Mezzmo Android: Install it on your tablet, smartphone, Android TV or Amazon Fire to browse and stream files from your Mezzmo library to all your devices. Full details at http://www.conceiva.com/products/mez...mo_android.asp
    Mezzmo for Kodi Add-on: Install it into Kodi to stream files from your Mezzmo library directly in Kodi. Full details at http://www.mezzmo.com/wiki/doku.php?...odi_user_guide
    Mezzmo for Roku App: Install it onto your Roku to stream files from your Mezzmo library. Full details at http://www.mezzmo.com/wiki/doku.php?...oku_user_guide
    Wiki: User Guides & Reference Manual at http://www.mezzmo.com/wiki
    Facebook: http://www.facebook.com/Mezzmo.DLNA.Server
    Twitter: https://twitter.com/conceiva_mezzmo
    Web: http://www.mezzmo.com

  3. #3
    Join Date
    Nov 2011
    Posts
    22

    Default

    With the BDP profile it works . Has this profile any "handicap" compared to the C-profile or can I use it all the time?

  4. #4
    Join Date
    Nov 2007
    Location
    Melbourne, Australia
    Posts
    11,616

    Default

    No, no "handicap" in this profile Just use it, as it's better suited for your TV.

    Mezzmo Android: Install it on your tablet, smartphone, Android TV or Amazon Fire to browse and stream files from your Mezzmo library to all your devices. Full details at http://www.conceiva.com/products/mez...mo_android.asp
    Mezzmo for Kodi Add-on: Install it into Kodi to stream files from your Mezzmo library directly in Kodi. Full details at http://www.mezzmo.com/wiki/doku.php?...odi_user_guide
    Mezzmo for Roku App: Install it onto your Roku to stream files from your Mezzmo library. Full details at http://www.mezzmo.com/wiki/doku.php?...oku_user_guide
    Wiki: User Guides & Reference Manual at http://www.mezzmo.com/wiki
    Facebook: http://www.facebook.com/Mezzmo.DLNA.Server
    Twitter: https://twitter.com/conceiva_mezzmo
    Web: http://www.mezzmo.com

Similar Threads

  1. "Not supported file format" on Samsung UE40C6700
    By turtle in forum Mezzmo Questions and Support
    Replies: 7
    Last Post: 04-30-2012, 10:22 AM
  2. "Not supported file format" on Samsung UN55C8000
    By brown3223 in forum Mezzmo Questions and Support
    Replies: 15
    Last Post: 04-26-2012, 10:29 AM
  3. Samsung c5700 "File format not supported"
    By t1b1m in forum Mezzmo Questions and Support
    Replies: 10
    Last Post: 08-23-2011, 09:14 AM
  4. Samsung LN40B650T1F "File Not Supported" error
    By Nawtdrye in forum Mezzmo Questions and Support
    Replies: 4
    Last Post: 06-30-2011, 12:03 PM
  5. Mezzmo Video Error: "File Not Supported" - Suggested Fix for mkv files
    By bigdog in forum Mezzmo Questions and Support
    Replies: 0
    Last Post: 03-31-2011, 10:33 AM

Tags for this Thread

Bookmarks

Posting Permissions

  • You may not post new threads
  • You may not post replies
  • You may not post attachments
  • You may not edit your posts
  •