Results 1 to 2 of 2

Thread: back for another look, same problem with transcoding

  1. #1
    Join Date
    Feb 2011
    Posts
    18

    Default back for another look, same problem with transcoding

    Hi guys,
    I've left Mezzmo for a few months and decided to come back-now trying out 2.4.5. But I still see the same problem with Mezzmo, on a PS3, where a file (details below) requires transcoding yet 2 other media servers ( Tversity and J River) dont. The profile is Sony playstation 3. Why does this file need to transcode (and eat up 100% of my CPU in the process with ffmpeg, whereas the other two dont even bump)?

    cheers

    file details


    ffmpeg version N-33781-g35674a2, Copyright (c) 2000-2011 the FFmpeg developers
    built on Oct 19 2011 10:31:16 with gcc 4.6.1
    configuration: --enable-memalign-hack --arch=x86 --target-os=mingw32 --cross-prefix=i686-w64-mingw32- --enable-static --disable-shared --enable-zlib --disable-postproc --prefix=/media/ffmpeg --enable-libmp3lame --enable-libx264 --enable-gpl --extra-libs='-lx264 -lpthread' --enable-runtime-cpudetect --extra-cflags=-I/home/dennis/cc/include --extra-ldflags=-L/home/dennis/cc/lib --pkg-config=pkg-config
    libavutil 51. 22. 0 / 51. 22. 0
    libavcodec 53. 21. 0 / 53. 21. 0
    libavformat 53. 16. 1 / 53. 16. 1
    libavdevice 53. 4. 0 / 53. 4. 0
    libavfilter 2. 44. 0 / 2. 44. 0
    libswscale 2. 1. 0 / 2. 1. 0

    Seems stream 0 codec frame rate differs from container frame rate: 47.95 (48000/1001) -> 59.94 (60000/1001)
    Input #0, mov,mp4,m4a,3gp,3g2,mj2, from 'F:\videos_Samsung\action\pelham 123.m4v':
    Metadata:
    major_brand : mp42
    minor_version : 0
    compatible_brands: mp42isomavc1
    creation_time : 2010-07-09 19:06:19
    encoder : HandBrake 0.9.4 2009112300
    Duration: 01:40:27.48, start: 0.000000, bitrate: 1121 kb/s
    Chapter #0.0: start -0.100200, end 300.199900
    Metadata:
    title : Chapter 1
    Chapter #0.1: start 300.199900, end 600.316378
    Metadata:
    title : Chapter 2
    Chapter #0.2: start 600.316378, end 900.549644
    Metadata:
    title : Chapter 3
    Chapter #0.3: start 900.549644, end 1200.549344
    Metadata:
    title : Chapter 4
    Chapter #0.4: start 1200.549344, end 1500.232067
    Metadata:
    title : Chapter 5
    Chapter #0.5: start 1500.232067, end 1800.515378
    Metadata:
    title : Chapter 6
    Chapter #0.6: start 1800.515378, end 2100.081311
    Metadata:
    title : Chapter 7
    Chapter #0.7: start 2100.081311, end 2400.548144
    Metadata:
    title : Chapter 8
    Chapter #0.8: start 2400.548144, end 2700.397700
    Metadata:
    title : Chapter 9
    Chapter #0.9: start 2700.397700, end 3000.147144
    Metadata:
    title : Chapter 10
    Chapter #0.10: start 3000.147144, end 3300.146844
    Metadata:
    title : Chapter 11
    Chapter #0.11: start 3300.146844, end 3600.480211
    Metadata:
    title : Chapter 12
    Chapter #0.12: start 3600.480211, end 3900.146244
    Metadata:
    title : Chapter 13
    Chapter #0.13: start 3900.146244, end 4200.196000
    Metadata:
    title : Chapter 14
    Chapter #0.14: start 4200.196000, end 4500.345844
    Metadata:
    title : Chapter 15
    Chapter #0.15: start 4500.345844, end 4800.545744
    Metadata:
    title : Chapter 16
    Chapter #0.16: start 4800.545744, end 5100.512078
    Metadata:
    title : Chapter 17
    Chapter #0.17: start 5100.512078, end 5400.161433
    Metadata:
    title : Chapter 18
    Chapter #0.18: start 5400.161433, end 5700.428067
    Metadata:
    title : Chapter 19
    Chapter #0.19: start 5700.428067, end 6000.511178
    Metadata:
    title : Chapter 20
    Chapter #0.20: start 6000.511178, end 6027.488100
    Metadata:
    title : Chapter 21
    Stream #0:0(und): Video: h264 (Main) (avc1 / 0x31637661), yuv420p, 720x356 [SAR 32:27 DAR 640:267], 956 kb/s, 25 fps, 59.94 tbr, 90k tbn, 47.95 tbc
    Metadata:
    creation_time : 2010-07-09 19:06:19
    Stream #0:1(und): Audio: aac (mp4a / 0x6134706D), 48000 Hz, stereo, s16, 159 kb/s
    Metadata:
    creation_time : 2010-07-09 19:06:19
    Stream #0:2(und): Subtitle: mov_text (text / 0x74786574)
    Metadata:
    creation_time : 2010-07-09 19:06:19
    At least one output file must be specified


    ---> DB Level Info: 30, 77
    ---> Frame rate: 25.00
    ---> Aspect ratio: 640:267

    cabs

  2. #2
    Join Date
    Nov 2007
    Location
    Melbourne, Australia
    Posts
    11,646

    Default

    Please try the "Sony Playstation 3 (Compatible)" device profile - it'll pass this file through natively.

    Mezzmo Android: Install it on your tablet, smartphone, Android TV or Amazon Fire to browse and stream files from your Mezzmo library to all your devices. Full details at http://www.conceiva.com/products/mez...mo_android.asp
    Mezzmo for Kodi Add-on: Install it into Kodi to stream files from your Mezzmo library directly in Kodi. Full details at http://www.mezzmo.com/wiki/doku.php?...odi_user_guide
    Mezzmo for Roku App: Install it onto your Roku to stream files from your Mezzmo library. Full details at http://www.mezzmo.com/wiki/doku.php?...oku_user_guide
    Wiki: User Guides & Reference Manual at http://www.mezzmo.com/wiki
    Facebook: http://www.facebook.com/Mezzmo.DLNA.Server
    Twitter: https://twitter.com/conceiva_mezzmo
    Web: http://www.mezzmo.com

Similar Threads

  1. Audio Codec detection and transcoding problem (Mostly avi with VBR)
    By christianclavet in forum Mezzmo Questions and Support
    Replies: 1
    Last Post: 02-09-2011, 07:57 AM
  2. I think that I have a problem with the transcoding
    By huvince in forum Mezzmo Questions and Support
    Replies: 5
    Last Post: 01-19-2011, 08:34 AM
  3. Problem with Playback of Captured TV File / Files all play back in NTSC
    By paulorox in forum Mezzmo Questions and Support
    Replies: 2
    Last Post: 11-09-2010, 09:00 AM
  4. Transcoding problem with LG 47LE8500 and DTS
    By lars@twinox.se in forum Mezzmo Questions and Support
    Replies: 3
    Last Post: 08-27-2010, 10:59 AM
  5. Transcoding problem
    By Jabberwock in forum Mezzmo Questions and Support
    Replies: 3
    Last Post: 01-19-2010, 08:31 AM

Tags for this Thread

Bookmarks

Posting Permissions

  • You may not post new threads
  • You may not post replies
  • You may not post attachments
  • You may not edit your posts
  •