Results 1 to 3 of 3

Thread: Galaxy Tab - AllShare - Format Errors

  1. #1

    Default Galaxy Tab - AllShare - Format Errors

    Im getting quite a few format errors with AllShare on a Galaxy Tab 10.1. Its using the Samsung Galaxy Tab device profile.

    Code:
    1: m4v
    
    Seems stream 0 codec frame rate differs from container frame rate: 59.94 (2997/50) -> 29.97 (2997/100)
    Input #0, mov,mp4,m4a,3gp,3g2,mj2, from '\\WHITEBOX\Public\videos\marv\day9\Day9-A Simple Plan-HasuObs-PvT.m4v':
      Metadata:
        major_brand     : M4V 
        minor_version   : 1
        compatible_brands: isomiso2avc1M4A M4V mp42
        creation_time   : 1970-01-01 00:00:00
        encoder         : Lavf52.62.0
      Duration: 00:32:19.20, start: 0.000000, bitrate: 3663 kb/s
        Stream #0:0(und): Video: h264 (High) (avc1 / 0x31637661), yuv420p, 1280x720 [SAR 1:1 DAR 16:9], 3533 kb/s, 29.97 fps, 29.97 tbr, 2997 tbn, 59.94 tbc
        Metadata:
          creation_time   : 1970-01-01 00:00:00
        Stream #0:1(und): Audio: aac (mp4a / 0x6134706D), 48000 Hz, stereo, s16, 125 kb/s
        Metadata:
          creation_time   : 1970-01-01 00:00:00
    At least one output file must be specified
    
    
    ---> DB Level Info: 31, 100
    ---> Frame rate: 29.97
    ---> Aspect ratio: 16:9
    
    
    2. flv
    
    Input #0, flv, from '\\WHITEBOX\Public\videos\marv\day9\Day[9] Daily #102 P1 Plugging Leaks In Silver Level Play.flv':
      Metadata:
        lasttimestamp   : 3603
        lastkeyframetimestamp: 3600
        audiodelay      : 0
                        : false
        creationdate    : 2010_05
        metadatacreator : created with SUPER(C).v2010.bld.38
        Meta_Tag        : D9D 0121-Plugging Leaks in Silver Level Play.flv.FLV
        videosize       : 728243533
        audiosize       : 54241015
        datasize        : 7206
      Duration: 01:00:03.46, start: 0.000000, bitrate: 1737 kb/s
        Stream #0:0: Video: h264 (Constrained Baseline), yuv420p, 712x400 [SAR 1:1 DAR 89:50], 30 tbr, 1k tbn, 60 tbc
        Stream #0:1: Audio: aac, 44100 Hz, stereo, s16
    At least one output file must be specified
    
    
    ---> DB Level Info: 13, 578
    ---> Frame rate: 30.00
    ---> Aspect ratio: 89:50
    
    3. MTS
    
    [mpegts @ 002C89E0] parser not found for codec hdmv_pgs_subtitle, packets or times may be invalid.
    [mpegts @ 002C89E0] max_analyze_duration 5000000 reached at 5024000
    
    Seems stream 0 codec frame rate differs from container frame rate: 100.00 (100/1) -> 25.00 (25/1)
    Input #0, mpegts, from '\\WHITEBOX\Public\videos\camera\Christmas Show 2011.MTS':
      Duration: 00:03:01.47, start: 0.888889, bitrate: 12082 kb/s
      Program 1 
        Stream #0:0[0x1011]: Video: h264 (High) (HDMV / 0x564D4448), yuv420p, 1280x720 [SAR 1:1 DAR 16:9], 25 fps, 25 tbr, 90k tbn, 100 tbc
        Stream #0:1[0x1100]: Audio: ac3 (AC-3 / 0x332D4341), 48000 Hz, stereo, s16, 192 kb/s
        Stream #0:2[0x1200]: Subtitle: hdmv_pgs_subtitle ([144][0][0][0] / 0x0090)
    At least one output file must be specified
    
    
    ---> DB Level Info: 40, 100
    ---> Frame rate: 25.00
    ---> Aspect ratio: 16:9

  2. #2
    Join Date
    Nov 2007
    Location
    Melbourne, Australia
    Posts
    11,616

    Default

    Please enable logging (see this thread: http://forum.conceiva.com/showthread...nostic-logging) then try playing one of the problem files. Once it fails to play, stop your Mezzmo server and zip up the logs and email them to us at support [at] conceiva [dot] com. We'll check out what is going wrong.

    Mezzmo Android: Install it on your tablet, smartphone, Android TV or Amazon Fire to browse and stream files from your Mezzmo library to all your devices. Full details at http://www.conceiva.com/products/mez...mo_android.asp
    Mezzmo for Kodi Add-on: Install it into Kodi to stream files from your Mezzmo library directly in Kodi. Full details at http://www.mezzmo.com/wiki/doku.php?...odi_user_guide
    Mezzmo for Roku App: Install it onto your Roku to stream files from your Mezzmo library. Full details at http://www.mezzmo.com/wiki/doku.php?...oku_user_guide
    Wiki: User Guides & Reference Manual at http://www.mezzmo.com/wiki
    Facebook: http://www.facebook.com/Mezzmo.DLNA.Server
    Twitter: https://twitter.com/conceiva_mezzmo
    Web: http://www.mezzmo.com

  3. #3

    Default

    ok, i'll do that.

Similar Threads

  1. AllShare on Samsung Galaxy SII
    By mezzmoman in forum Mezzmo Questions and Support
    Replies: 14
    Last Post: 02-21-2012, 02:50 AM
  2. C++ Runtime errors - Why I am getting this?
    By jeffreybc55 in forum Mezzmo Questions and Support
    Replies: 3
    Last Post: 12-08-2011, 01:55 PM
  3. Samsung Galaxy: No contents in AllShare application
    By hafa in forum Mezzmo Questions and Support
    Replies: 6
    Last Post: 04-30-2011, 06:20 PM
  4. Samsung Galaxy S Issues
    By sandhurst in forum Mezzmo Questions and Support
    Replies: 2
    Last Post: 02-28-2011, 08:17 AM
  5. Javascript errors when using the new Chrome plugin
    By bmcclure in forum DownloadStudio Questions and Support
    Replies: 1
    Last Post: 05-31-2010, 08:28 AM

Tags for this Thread

Bookmarks

Posting Permissions

  • You may not post new threads
  • You may not post replies
  • You may not post attachments
  • You may not edit your posts
  •