Results 1 to 2 of 2

Thread: AVI files and Panasonic Viera G20

  1. #1
    Join Date
    Dec 2011
    Posts
    2

    Default AVI files and Panasonic Viera G20

    Hi,

    I am currently using the free trial of mezzmo but plan to purchase shortly as I have been very impressed. I am having a couple of minor issues with a number of AVI files. The vast majority of my files play fine on the tv (Panasonic Viera TX-P50G20BA) with the profile set to "Panasonic Viera" (I have tried the other profiles but this seems the best for the most files.) The few problem files play ok if I play them directly on the server computer using WMP (not through mezzmo). However, I have problems with an even greater number of files if I try to play them through mezzmo on another computer using WMP.

    Is this likely to be more a problem with how the files have been ripped (even though they play fine if I open them directly) than with how I have mezzmo set up? Any suggestions would be welcome. Please let me know if you need any more information or log files.

    Regards,


    EDIT: Just checked the FFmpeg info for a couple of the problem files (Please see example below) and there seems to be an error with them:

    ffmpeg version N-33781-g35674a2, Copyright (c) 2000-2011 the FFmpeg developers
    built on Oct 19 2011 10:31:16 with gcc 4.6.1
    configuration: --enable-memalign-hack --arch=x86 --target-os=mingw32 --cross-prefix=i686-w64-mingw32- --enable-static --disable-shared --enable-zlib --disable-postproc --prefix=/media/ffmpeg --enable-libmp3lame --enable-libx264 --enable-gpl --extra-libs='-lx264 -lpthread' --enable-runtime-cpudetect --extra-cflags=-I/home/dennis/cc/include --extra-ldflags=-L/home/dennis/cc/lib --pkg-config=pkg-config
    libavutil 51. 22. 0 / 51. 22. 0
    libavcodec 53. 21. 0 / 53. 21. 0
    libavformat 53. 16. 1 / 53. 16. 1
    libavdevice 53. 4. 0 / 53. 4. 0
    libavfilter 2. 44. 0 / 2. 44. 0
    libswscale 2. 1. 0 / 2. 1. 0
    [mpeg4 @ 01598BA0] Invalid and inefficient vfw-avi packed B frames detected
    [mpeg4 @ 01598BA0] frame skip 8
    [mp3 @ 0159F160] Header missing

    Seems stream 0 codec frame rate differs from container frame rate: 30000.00 (30000/1) -> 29.97 (30000/1001)
    Input #0, avi, from 'D:\Films\Comedy\*******\********.avi':
    Duration: 01:30:40.84, start: 0.000000, bitrate: 998 kb/s
    Stream #0:0: Video: mpeg4 (DX50 / 0x30355844), yuv420p, 720x480 [SAR 1:1 DAR 3:2], 29.97 fps, 29.97 tbr, 29.97 tbn, 30k tbc
    Stream #0:1: Audio: mp3 (U[0][0][0] / 0x0055), 44100 Hz, stereo, s16, 192 kb/s
    Metadata:
    title : Audio Stream
    At least one output file must be specified


    ---> DB Level Info: -99, -99
    ---> Frame rate: 29.97
    ---> Aspect ratio: 3:2
    Last edited by Gravitate; 12-31-2011 at 12:05 AM.

  2. #2
    Join Date
    Nov 2007
    Location
    Melbourne, Australia
    Posts
    11,616

    Default

    The Panasonic Viera device profile will stream your above example file natively to your TV without any transcoding. oO, if you TV does not play it, then you are probably right - either the file is badly encoded or your TV's firmware does not like for some reason.

    Mezzmo Android: Install it on your tablet, smartphone, Android TV or Amazon Fire to browse and stream files from your Mezzmo library to all your devices. Full details at http://www.conceiva.com/products/mez...mo_android.asp
    Mezzmo for Kodi Add-on: Install it into Kodi to stream files from your Mezzmo library directly in Kodi. Full details at http://www.mezzmo.com/wiki/doku.php?...odi_user_guide
    Mezzmo for Roku App: Install it onto your Roku to stream files from your Mezzmo library. Full details at http://www.mezzmo.com/wiki/doku.php?...oku_user_guide
    Wiki: User Guides & Reference Manual at http://www.mezzmo.com/wiki
    Facebook: http://www.facebook.com/Mezzmo.DLNA.Server
    Twitter: https://twitter.com/conceiva_mezzmo
    Web: http://www.mezzmo.com

Similar Threads

  1. Panasonic Viera: Subtitles and AVI playback
    By jason1 in forum Mezzmo Questions and Support
    Replies: 16
    Last Post: 12-18-2012, 03:13 PM
  2. Panasonic Viera TV 2011 profiles
    By drwoodr in forum Mezzmo Questions and Support
    Replies: 5
    Last Post: 04-10-2012, 10:34 AM
  3. Mezzmo over Wireless to Panasonic Viera
    By Cobolt in forum Mezzmo Questions and Support
    Replies: 3
    Last Post: 12-21-2011, 08:53 AM
  4. Panasonic Viera V Series
    By Mike250 in forum Mezzmo Questions and Support
    Replies: 2
    Last Post: 09-06-2010, 08:42 PM
  5. Streaming to Panasonic VIERA TX-P42V10E
    By TheArmCommander in forum Mezzmo Questions and Support
    Replies: 17
    Last Post: 03-29-2010, 08:55 AM

Tags for this Thread

Bookmarks

Posting Permissions

  • You may not post new threads
  • You may not post replies
  • You may not post attachments
  • You may not edit your posts
  •