Results 1 to 3 of 3

Thread: No Audio while steaming to Samsung

  1. #1
    Join Date
    Feb 2012
    Posts
    3

    Default No Audio while steaming to Samsung

    Hello,

    I'm running Mezzmo 2.5.0 on a Windows 7 box and attempting to stream to a Samsung LBN52750 [software version 1018:1. The video is beautiful but I'm getting no audio at all. I ran through all of the selections for 'SAMSUNG' in Media Devices with no change at all. All of my media\video files are .avi and as such can be played natively by the Samsung so I turned off trancoding for all connected devices. There was no audio with transcoding on either.
    I've been reading the other posts concerning this issue to no avail. I'm including the ffmpeg output from two of the files:

    ffmpeg version N-36036-ga40f43d, Copyright (c) 2000-2011 the FFmpeg developers
    built on Dec 22 2011 13:44:49 with gcc 4.6.2
    configuration: --enable-memalign-hack --arch=x86 --target-os=mingw32 --cross-prefix=i686-w64-mingw32- --enable-static --disable-shared --enable-zlib --disable-postproc --prefix=/media/ffmpeg --enable-libmp3lame --enable-libx264 --enable-gpl --extra-libs='-lx264 -lpthread' --enable-runtime-cpudetect --extra-cflags=-I/home/dennis/cc/include --extra-ldflags=-L/home/dennis/cc/lib --pkg-config=pkg-config --disable-w32threads
    libavutil 51. 32. 0 / 51. 32. 0
    libavcodec 53. 46. 1 / 53. 46. 1
    libavformat 53. 27. 0 / 53. 27. 0
    libavdevice 53. 4. 0 / 53. 4. 0
    libavfilter 2. 53. 0 / 2. 53. 0
    libswscale 2. 1. 0 / 2. 1. 0
    Input #0, avi, from 'F:\B_DownloadedTorrents\30 Days Of Night Dark Days\30 Days Of Night Dark Days .avi':
    Metadata:
    encoder : Lavf51.12.1
    Duration: 01:31:32.61, start: 0.000000, bitrate: 1272 kb/s
    Stream #0:0: Video: mpeg4 (Simple Profile) (xvid / 0x64697678), yuv420p, 624x336 [SAR 1:1 DAR 13:7], 29.97 tbr, 29.97 tbn, 29.97 tbc
    Stream #0:1: Audio: mp3 (U[0][0][0] / 0x0055), 44100 Hz, stereo, s16, 128 kb/s
    At least one output file must be specified
    ---> DB Level Info: 3, 0
    ---> Frame rate: 29.97
    ---> Aspect ratio: 13:7

    --------------------------------------------

    ffmpeg version N-36036-ga40f43d, Copyright (c) 2000-2011 the FFmpeg developers
    built on Dec 22 2011 13:44:49 with gcc 4.6.2
    configuration: --enable-memalign-hack --arch=x86 --target-os=mingw32 --cross-prefix=i686-w64-mingw32- --enable-static --disable-shared --enable-zlib --disable-postproc --prefix=/media/ffmpeg --enable-libmp3lame --enable-libx264 --enable-gpl --extra-libs='-lx264 -lpthread' --enable-runtime-cpudetect --extra-cflags=-I/home/dennis/cc/include --extra-ldflags=-L/home/dennis/cc/lib --pkg-config=pkg-config --disable-w32threads
    libavutil 51. 32. 0 / 51. 32. 0
    libavcodec 53. 46. 1 / 53. 46. 1
    libavformat 53. 27. 0 / 53. 27. 0
    libavdevice 53. 4. 0 / 53. 4. 0
    libavfilter 2. 53. 0 / 2. 53. 0
    libswscale 2. 1. 0 / 2. 1. 0
    Input #0, avi, from 'F:\B_DownloadedTorrents\Blood The Last Vampire\Blood The Last Vampire {2009} DVDRIP. avi':
    Metadata:
    encoder : Lavf51.12.1
    Duration: 01:26:22.68, start: 0.000000, bitrate: 1339 kb/s
    Stream #0:0: Video: mpeg4 (Simple Profile) (xvid / 0x64697678), yuv420p, 640x272 [SAR 1:1 DAR 40:17], 29.97 tbr, 29.97 tbn, 29.97 tbc
    Stream #0:1: Audio: mp3 (U[0][0][0] / 0x0055), 44100 Hz, stereo, s16, 128 kb/s
    At least one output file must be specified
    ---> DB Level Info: 3, 0
    ---> Frame rate: 29.97
    ---> Aspect ratio: 40:17

    Please help

    Thanks,
    jhp1

  2. #2
    Join Date
    Nov 2007
    Location
    Melbourne, Australia
    Posts
    11,646

    Default

    Hello,

    Those files should be sent natively to the device, so perhaps there's something in the encoding of those files.

    If you have Samsung's server, can you please try that and see if audio plays?

    Also, please try to pre-transcode those files in Mezzmo (forced transcoding), and see if they play properly after that?

    Mezzmo Android: Install it on your tablet, smartphone, Android TV or Amazon Fire to browse and stream files from your Mezzmo library to all your devices. Full details at http://www.conceiva.com/products/mez...mo_android.asp
    Mezzmo for Kodi Add-on: Install it into Kodi to stream files from your Mezzmo library directly in Kodi. Full details at http://www.mezzmo.com/wiki/doku.php?...odi_user_guide
    Mezzmo for Roku App: Install it onto your Roku to stream files from your Mezzmo library. Full details at http://www.mezzmo.com/wiki/doku.php?...oku_user_guide
    Wiki: User Guides & Reference Manual at http://www.mezzmo.com/wiki
    Facebook: http://www.facebook.com/Mezzmo.DLNA.Server
    Twitter: https://twitter.com/conceiva_mezzmo
    Web: http://www.mezzmo.com

  3. #3
    Join Date
    Feb 2012
    Posts
    3

    Default

    Problem Resolved ... it was a hardware configuration issue.

    Thanks

    jhp1

Similar Threads

  1. ac3 audio in mkv for samsung bd-c5900
    By aguy in forum Mezzmo Questions and Support
    Replies: 11
    Last Post: 07-11-2013, 06:13 PM
  2. Audio lag streaming to Samsung HT system
    By crazyjockey in forum Mezzmo Questions and Support
    Replies: 7
    Last Post: 01-20-2012, 10:12 AM
  3. Samsung BD-C6500 not playing audio
    By Riash in forum Mezzmo Questions and Support
    Replies: 1
    Last Post: 09-19-2011, 09:04 AM
  4. No Audio on Samsung TV LED
    By globalgmcd in forum Mezzmo Questions and Support
    Replies: 1
    Last Post: 05-30-2011, 10:03 AM
  5. Samsung BDP: Ac3 audio problem on some files
    By ludo15 in forum Mezzmo Questions and Support
    Replies: 4
    Last Post: 01-05-2011, 11:45 AM

Tags for this Thread

Bookmarks

Posting Permissions

  • You may not post new threads
  • You may not post replies
  • You may not post attachments
  • You may not edit your posts
  •