Page 1 of 2 12 LastLast
Results 1 to 10 of 11

Thread: Panasonic tx-p42g30y + .srt + .mkv

  1. #1

    Default Panasonic tx-p42g30y + .srt + .mkv

    Hi,

    I've been unable to get the .srt/.mkv combination to work.
    Am i right that this cannot be done?

    Everything is up to date, and mezzmo recognized my TV fine. Mezzmo doesn,t even transcode the file but video/audio plays fine.

    I've tried mux'ing the two files with mkvmerge GUI, wich makes it work perfekt on my PC. But the tv will stay at zero minutes/seconds when trying to play the file.

  2. #2
    Join Date
    Nov 2007
    Location
    Melbourne, Australia
    Posts
    11,616

    Default

    Yes, unfortunately Panasonic TVs only support .SRTs for .AVI (DivX) files.

    Mezzmo Android: Install it on your tablet, smartphone, Android TV or Amazon Fire to browse and stream files from your Mezzmo library to all your devices. Full details at http://www.conceiva.com/products/mez...mo_android.asp
    Mezzmo for Kodi Add-on: Install it into Kodi to stream files from your Mezzmo library directly in Kodi. Full details at http://www.mezzmo.com/wiki/doku.php?...odi_user_guide
    Mezzmo for Roku App: Install it onto your Roku to stream files from your Mezzmo library. Full details at http://www.mezzmo.com/wiki/doku.php?...oku_user_guide
    Wiki: User Guides & Reference Manual at http://www.mezzmo.com/wiki
    Facebook: http://www.facebook.com/Mezzmo.DLNA.Server
    Twitter: https://twitter.com/conceiva_mezzmo
    Web: http://www.mezzmo.com

  3. #3

    Default

    Thats a shame.

    Any idea why the mkv wont start playing after i've mux'ed the srt into the mkv? The funny thing is, even if the mkv never starts i can access the subtitles now.
    On the PC the video works without a problem after mux'ing.

  4. #4
    Join Date
    Nov 2007
    Location
    Melbourne, Australia
    Posts
    11,616

    Default

    It's hard to say without seeing the file - can you please right-click on it in Mezzmo and post the output of the "Get FFmpeg Information" command? Also, please tell me which device profile you are using for your TV.

    Mezzmo Android: Install it on your tablet, smartphone, Android TV or Amazon Fire to browse and stream files from your Mezzmo library to all your devices. Full details at http://www.conceiva.com/products/mez...mo_android.asp
    Mezzmo for Kodi Add-on: Install it into Kodi to stream files from your Mezzmo library directly in Kodi. Full details at http://www.mezzmo.com/wiki/doku.php?...odi_user_guide
    Mezzmo for Roku App: Install it onto your Roku to stream files from your Mezzmo library. Full details at http://www.mezzmo.com/wiki/doku.php?...oku_user_guide
    Wiki: User Guides & Reference Manual at http://www.mezzmo.com/wiki
    Facebook: http://www.facebook.com/Mezzmo.DLNA.Server
    Twitter: https://twitter.com/conceiva_mezzmo
    Web: http://www.mezzmo.com

  5. #5

    Default

    This one is the original
    ffmpeg version N-36036-ga40f43d, Copyright (c) 2000-2011 the FFmpeg developers
    built on Dec 22 2011 13:44:49 with gcc 4.6.2
    configuration: --enable-memalign-hack --arch=x86 --target-os=mingw32 --cross-prefix=i686-w64-mingw32- --enable-static --disable-shared --enable-zlib --disable-postproc --prefix=/media/ffmpeg --enable-libmp3lame --enable-libx264 --enable-gpl --extra-libs='-lx264 -lpthread' --enable-runtime-cpudetect --extra-cflags=-I/home/dennis/cc/include --extra-ldflags=-L/home/dennis/cc/lib --pkg-config=pkg-config --disable-w32threads
    libavutil 51. 32. 0 / 51. 32. 0
    libavcodec 53. 46. 1 / 53. 46. 1
    libavformat 53. 27. 0 / 53. 27. 0
    libavdevice 53. 4. 0 / 53. 4. 0
    libavfilter 2. 53. 0 / 2. 53. 0
    libswscale 2. 1. 0 / 2. 1. 0
    Input #0, matroska,webm, from 'F:\Film\Back.to.the.Future.1985.720p.BluRay.X264-AMIABLE\Back.to.the.Future.1985.720p.BluRay.X264-AMIABLE.mkv':
    Duration: 01:56:05.91, start: 0.000000, bitrate: 8084 kb/s
    Chapter #0.0: start 0.000000, end 253.545000
    Metadata:
    title : 00:00:00.000
    Chapter #0.1: start 253.545000, end 407.282000
    Metadata:
    title : 00:04:13.545
    Chapter #0.2: start 407.282000, end 705.246000
    Metadata:
    title : 00:06:47.282
    Chapter #0.3: start 705.246000, end 1084.166000
    Metadata:
    title : 00:11:45.246
    Chapter #0.4: start 1084.166000, end 1692.274000
    Metadata:
    title : 00:18:04.166
    Chapter #0.5: start 1692.274000, end 1890.680000
    Metadata:
    title : 00:28:12.274
    Chapter #0.6: start 1890.680000, end 2320.693000
    Metadata:
    title : 00:31:30.680
    Chapter #0.7: start 2320.693000, end 2482.313000
    Metadata:
    title : 00:38:40.693
    Chapter #0.8: start 2482.313000, end 2873.370000
    Metadata:
    title : 00:41:22.313
    Chapter #0.9: start 2873.370000, end 3353.141000
    Metadata:
    title : 00:47:53.370
    Chapter #0.10: start 3353.141000, end 3529.860000
    Metadata:
    title : 00:55:53.141
    Chapter #0.11: start 3529.860000, end 3916.788000
    Metadata:
    title : 00:58:49.860
    Chapter #0.12: start 3916.788000, end 4600.304000
    Metadata:
    title : 01:05:16.788
    Chapter #0.13: start 4600.304000, end 4814.643000
    Metadata:
    title : 01:16:40.304
    Chapter #0.14: start 4814.643000, end 5243.321000
    Metadata:
    title : 01:20:14.643
    Chapter #0.15: start 5243.321000, end 5472.050000
    Metadata:
    title : 01:27:23.321
    Chapter #0.16: start 5472.050000, end 6100.553000
    Metadata:
    title : 01:31:12.050
    Chapter #0.17: start 6100.553000, end 6401.437000
    Metadata:
    title : 01:41:40.553
    Chapter #0.18: start 6401.437000, end 6684.511000
    Metadata:
    title : 01:46:41.437
    Chapter #0.19: start 6684.511000, end 6965.917000
    Metadata:
    title : 01:51:24.511
    Stream #0:0(eng): Video: h264 (High), yuv420p, 1280x696, SAR 1:1 DAR 160:87, 23.98 fps, 23.98 tbr, 1k tbn, 47.95 tbc (default)
    Stream #0:1(eng): Audio: dts (DTS), 48000 Hz, 5.1(side), s16, 1536 kb/s (default)
    Stream #0:2(eng): Subtitle: text
    Stream #0:3(fre): Subtitle: text
    Stream #0:4(spa): Subtitle: text
    At least one output file must be specified


    ---> DB Level Info: 41, 100
    ---> Frame rate: 23,98
    ---> Aspect ratio: 160:87
    This one is practically the same, i've just added the .srt file and mux'ed.
    ffmpeg version N-36036-ga40f43d, Copyright (c) 2000-2011 the FFmpeg developers
    built on Dec 22 2011 13:44:49 with gcc 4.6.2
    configuration: --enable-memalign-hack --arch=x86 --target-os=mingw32 --cross-prefix=i686-w64-mingw32- --enable-static --disable-shared --enable-zlib --disable-postproc --prefix=/media/ffmpeg --enable-libmp3lame --enable-libx264 --enable-gpl --extra-libs='-lx264 -lpthread' --enable-runtime-cpudetect --extra-cflags=-I/home/dennis/cc/include --extra-ldflags=-L/home/dennis/cc/lib --pkg-config=pkg-config --disable-w32threads
    libavutil 51. 32. 0 / 51. 32. 0
    libavcodec 53. 46. 1 / 53. 46. 1
    libavformat 53. 27. 0 / 53. 27. 0
    libavdevice 53. 4. 0 / 53. 4. 0
    libavfilter 2. 53. 0 / 2. 53. 0
    libswscale 2. 1. 0 / 2. 1. 0
    Input #0, matroska,webm, from 'F:\Film\Back.to.the.Future.1985.720p.BluRay.X264-AMIABLE\Back.to.the.Future.1985.720p.BluRay.X264-AMIABLE (1).mkv':
    Duration: 01:56:05.95, start: 0.000000, bitrate: 8081 kb/s
    Chapter #0.0: start 0.000000, end 253.545000
    Metadata:
    title : 00:00:00.000
    Chapter #0.1: start 253.545000, end 407.282000
    Metadata:
    title : 00:04:13.545
    Chapter #0.2: start 407.282000, end 705.246000
    Metadata:
    title : 00:06:47.282
    Chapter #0.3: start 705.246000, end 1084.166000
    Metadata:
    title : 00:11:45.246
    Chapter #0.4: start 1084.166000, end 1692.274000
    Metadata:
    title : 00:18:04.166
    Chapter #0.5: start 1692.274000, end 1890.680000
    Metadata:
    title : 00:28:12.274
    Chapter #0.6: start 1890.680000, end 2320.693000
    Metadata:
    title : 00:31:30.680
    Chapter #0.7: start 2320.693000, end 2482.313000
    Metadata:
    title : 00:38:40.693
    Chapter #0.8: start 2482.313000, end 2873.370000
    Metadata:
    title : 00:41:22.313
    Chapter #0.9: start 2873.370000, end 3353.141000
    Metadata:
    title : 00:47:53.370
    Chapter #0.10: start 3353.141000, end 3529.860000
    Metadata:
    title : 00:55:53.141
    Chapter #0.11: start 3529.860000, end 3916.788000
    Metadata:
    title : 00:58:49.860
    Chapter #0.12: start 3916.788000, end 4600.304000
    Metadata:
    title : 01:05:16.788
    Chapter #0.13: start 4600.304000, end 4814.643000
    Metadata:
    title : 01:16:40.304
    Chapter #0.14: start 4814.643000, end 5243.321000
    Metadata:
    title : 01:20:14.643
    Chapter #0.15: start 5243.321000, end 5472.050000
    Metadata:
    title : 01:27:23.321
    Chapter #0.16: start 5472.050000, end 6100.553000
    Metadata:
    title : 01:31:12.050
    Chapter #0.17: start 6100.553000, end 6401.437000
    Metadata:
    title : 01:41:40.553
    Chapter #0.18: start 6401.437000, end 6684.511000
    Metadata:
    title : 01:46:41.437
    Chapter #0.19: start 6684.511000, end 6965.959000
    Metadata:
    title : 01:51:24.511
    Stream #0:0(eng): Video: h264 (High), yuv420p, 1280x696, SAR 1:1 DAR 160:87, 23.98 fps, 23.98 tbr, 1k tbn, 47.95 tbc (default)
    Stream #0:1(eng): Audio: dts (DTS), 48000 Hz, 5.1(side), s16, 1536 kb/s (default)
    Stream #0:2(dan): Subtitle: text (default) (forced)
    At least one output file must be specified


    ---> DB Level Info: 41, 100
    ---> Frame rate: 23,98
    ---> Aspect ratio: 160:87

  6. #6
    Join Date
    Nov 2007
    Location
    Melbourne, Australia
    Posts
    11,616

    Default

    I don't see anything obviously wrong about the second file, so I'm not really sure why it doesn't start playback. The only difference is the bitrate on the second file. Also, the subtitle says "forced", not sure if that would make a difference. If you remove all subtitles from the file and try playing it, does it work?

    Mezzmo Android: Install it on your tablet, smartphone, Android TV or Amazon Fire to browse and stream files from your Mezzmo library to all your devices. Full details at http://www.conceiva.com/products/mez...mo_android.asp
    Mezzmo for Kodi Add-on: Install it into Kodi to stream files from your Mezzmo library directly in Kodi. Full details at http://www.mezzmo.com/wiki/doku.php?...odi_user_guide
    Mezzmo for Roku App: Install it onto your Roku to stream files from your Mezzmo library. Full details at http://www.mezzmo.com/wiki/doku.php?...oku_user_guide
    Wiki: User Guides & Reference Manual at http://www.mezzmo.com/wiki
    Facebook: http://www.facebook.com/Mezzmo.DLNA.Server
    Twitter: https://twitter.com/conceiva_mezzmo
    Web: http://www.mezzmo.com

  7. #7

    Default

    I've change the subs to forced myselv, just to se if they would show.

    Now i've tried to take the original file, and removed all the subs "eng/ita/spa", with the same result. The file wont start playing. I have change nothing in the setting for muxing. Just opened mkvmerge, pulled the file over and removed subs.

  8. #8

    Default

    Just tried to put the file into mkvmerge and mux i without changing anything. No subs added or removed.
    Same result, the new file wont play. So mkvmerge must be doing something to the file.

    This is really not my area of expertise, any idea what mkvmerge could be doing?
    Or any suggestion to another program like it, so i can se if the same thing happens?

  9. #9
    Join Date
    Nov 2007
    Location
    Melbourne, Australia
    Posts
    11,616

    Default

    Yes, sounds like MKVmerge is screwing something up in the file. Are you using the latest version?

    Sorry, I can't recommend any particular program to add in subtitles, but perhaps some of our users have some suggestions and will reply here

    Mezzmo Android: Install it on your tablet, smartphone, Android TV or Amazon Fire to browse and stream files from your Mezzmo library to all your devices. Full details at http://www.conceiva.com/products/mez...mo_android.asp
    Mezzmo for Kodi Add-on: Install it into Kodi to stream files from your Mezzmo library directly in Kodi. Full details at http://www.mezzmo.com/wiki/doku.php?...odi_user_guide
    Mezzmo for Roku App: Install it onto your Roku to stream files from your Mezzmo library. Full details at http://www.mezzmo.com/wiki/doku.php?...oku_user_guide
    Wiki: User Guides & Reference Manual at http://www.mezzmo.com/wiki
    Facebook: http://www.facebook.com/Mezzmo.DLNA.Server
    Twitter: https://twitter.com/conceiva_mezzmo
    Web: http://www.mezzmo.com

  10. #10

    Default

    @boneslammer: Have a look here m8: http://www.videohelp.com/tools/XviD4PSP

Similar Threads

  1. Panasonic TX-P42V10B
    By Roofus in forum Mezzmo Questions and Support
    Replies: 19
    Last Post: 04-23-2012, 10:54 AM
  2. panasonic G20 and LG HX806PE problems
    By lamzor in forum Mezzmo Questions and Support
    Replies: 3
    Last Post: 01-03-2012, 10:33 AM
  3. Panasonic DMP-BDT210 and mp4
    By javovo in forum Mezzmo Questions and Support
    Replies: 1
    Last Post: 11-21-2011, 09:50 AM
  4. Panasonic TX-L37D25E
    By Stephan in forum Mezzmo Questions and Support
    Replies: 28
    Last Post: 08-05-2010, 09:34 AM
  5. Panasonic Viera's
    By ollie in forum Mezzmo Questions and Support
    Replies: 1
    Last Post: 06-04-2010, 09:51 AM

Tags for this Thread

Bookmarks

Posting Permissions

  • You may not post new threads
  • You may not post replies
  • You may not post attachments
  • You may not edit your posts
  •