Results 1 to 2 of 2

Thread: Trial works great, except aspect ratios :(

  1. #1
    Join Date
    Feb 2012
    Posts
    1

    Default Trial works great, except aspect ratios :(

    I have mine setup to go to a Panasonic DMP-BDT210 blu ray player (Panasonic DMP setting) and it streams my files just fine and transcodes on the fly just fine except the aspect ratio does not come in correctly on my TV like it does when I play the original file. As you can see by the output below it is a 2.4:1 aspect ratio but comes in full screen on my TV. How do I get it to stream the correct aspect? This program is great and I can see myself buying it but not if it comes in all stretched like this every time, thanks.

    Edit: I have tried the other 2 Panasonic DMP profiles and am unable to play any files at all off of there, I just get a "cannot play" error on my blu ray player.


    ffmpeg version N-36036-ga40f43d, Copyright (c) 2000-2011 the FFmpeg developers
    built on Dec 22 2011 13:44:49 with gcc 4.6.2
    configuration: --enable-memalign-hack --arch=x86 --target-os=mingw32 --cross-prefix=i686-w64-mingw32- --enable-static --disable-shared --enable-zlib --disable-postproc --prefix=/media/ffmpeg --enable-libmp3lame --enable-libx264 --enable-gpl --extra-libs='-lx264 -lpthread' --enable-runtime-cpudetect --extra-cflags=-I/home/dennis/cc/include --extra-ldflags=-L/home/dennis/cc/lib --pkg-config=pkg-config --disable-w32threads
    libavutil 51. 32. 0 / 51. 32. 0
    libavcodec 53. 46. 1 / 53. 46. 1
    libavformat 53. 27. 0 / 53. 27. 0
    libavdevice 53. 4. 0 / 53. 4. 0
    libavfilter 2. 53. 0 / 2. 53. 0
    libswscale 2. 1. 0 / 2. 1. 0
    [mpeg4 @ 01548b20] Invalid and inefficient vfw-avi packed B frames detected

    Seems stream 0 codec frame rate differs from container frame rate: 23.98 (65535/2733) -> 23.98 (10000000/417083)
    Input #0, avi, from 'C:\Users\Aaron\Movies\Rango\Rango.XviD.AC3.avi':
    Metadata:
    encoder : VirtualDubMod 1.5.10.2 (build 2542/release)
    Duration: 01:51:50.07, start: 0.000000, bitrate: 3067 kb/s
    Stream #0:0: Video: mpeg4 (Advanced Simple Profile) (XVID / 0x44495658), yuv420p, 1280x528 [SAR 1:1 DAR 80:33], 23.98 tbr, 23.98 tbn, 23.98 tbc
    Stream #0:1: Audio: ac3 ([0] [0][0] / 0x2000), 48000 Hz, 5.1(side), s16, 448 kb/s
    At least one output file must be specified


    ---> DB Level Info: 5, 15
    ---> Frame rate: 23.98
    ---> Aspect ratio: 80:33
    Last edited by Aaronsmity; 02-13-2012 at 02:52 AM.

  2. #2
    Join Date
    Nov 2007
    Location
    Melbourne, Australia
    Posts
    11,616

    Default

    Can you please open a support request and I'll send you an updated device profile to try and fix that.

    Mezzmo Android: Install it on your tablet, smartphone, Android TV or Amazon Fire to browse and stream files from your Mezzmo library to all your devices. Full details at http://www.conceiva.com/products/mez...mo_android.asp
    Mezzmo for Kodi Add-on: Install it into Kodi to stream files from your Mezzmo library directly in Kodi. Full details at http://www.mezzmo.com/wiki/doku.php?...odi_user_guide
    Mezzmo for Roku App: Install it onto your Roku to stream files from your Mezzmo library. Full details at http://www.mezzmo.com/wiki/doku.php?...oku_user_guide
    Wiki: User Guides & Reference Manual at http://www.mezzmo.com/wiki
    Facebook: http://www.facebook.com/Mezzmo.DLNA.Server
    Twitter: https://twitter.com/conceiva_mezzmo
    Web: http://www.mezzmo.com

Similar Threads

  1. Great Job!
    By lopicma in forum Mezzmo Wish List and Feedback
    Replies: 1
    Last Post: 01-09-2012, 01:27 PM
  2. trial almost over
    By tkpro in forum Mezzmo Questions and Support
    Replies: 3
    Last Post: 05-26-2011, 09:40 AM
  3. Great Product
    By redbeard in forum Mezzmo Wish List and Feedback
    Replies: 1
    Last Post: 02-14-2011, 09:05 AM
  4. Replies: 10
    Last Post: 08-24-2010, 09:39 AM
  5. Just bought the great program only 3 problems
    By Taekwonrooij in forum Mezzmo Questions and Support
    Replies: 23
    Last Post: 08-17-2010, 06:10 PM

Tags for this Thread

Bookmarks

Posting Permissions

  • You may not post new threads
  • You may not post replies
  • You may not post attachments
  • You may not edit your posts
  •