Results 1 to 2 of 2

Thread: Mezzmo 2.5.0.0 on Windows 7 SP1 32bit + Samsung UE40B7020 running latest firmware

  1. #1
    Join Date
    Feb 2012
    Posts
    1

    Default Mezzmo 2.5.0.0 on Windows 7 SP1 32bit + Samsung UE40B7020 running latest firmware

    Hi,

    Under the following configuration (Mezzmo 2.5.0.0 on Windows 7 SP1 32bit + Samsung UE40B7020 running latest firmware)
    Mezzmo starts every film (divx or mkv) correctly, but stops after a few minutes.

    Here you can find the FFmpeg information:

    ffmpeg version N-36036-ga40f43d, Copyright (c) 2000-2011 the FFmpeg developers
    built on Dec 22 2011 13:44:49 with gcc 4.6.2
    configuration: --enable-memalign-hack --arch=x86 --target-os=mingw32 --cross-prefix=i686-w64-mingw32- --enable-static --disable-shared --enable-zlib --disable-postproc --prefix=/media/ffmpeg --enable-libmp3lame --enable-libx264 --enable-gpl --extra-libs='-lx264 -lpthread' --enable-runtime-cpudetect --extra-cflags=-I/home/dennis/cc/include --extra-ldflags=-L/home/dennis/cc/lib --pkg-config=pkg-config --disable-w32threads
    libavutil 51. 32. 0 / 51. 32. 0
    libavcodec 53. 46. 1 / 53. 46. 1
    libavformat 53. 27. 0 / 53. 27. 0
    libavdevice 53. 4. 0 / 53. 4. 0
    libavfilter 2. 53. 0 / 2. 53. 0
    libswscale 2. 1. 0 / 2. 1. 0
    Input #0, matroska,webm, from 'D:\Documents\MOVIES\Blueray\A.Serious.Man.2010.DV DRip.x264.AC3-LUSi.mkv':
    Duration: 01:41:10.04, start: 0.000000, bitrate: 2299 kb/s
    Stream #0:0: Audio: ac3, 48000 Hz, 5.1(side), s16, 448 kb/s (default)
    Stream #0:1(eng): Video: h264 (High), yuv420p, 720x384 [SAR 1:1 DAR 15:8], 25 fps, 25 tbr, 1k tbn, 50 tbc
    At least one output file must be specified


    ---> DB Level Info: 30, 0
    ---> Frame rate:
    ---> Aspect ratio:

    I will also post the diagnostic logging files later tonight.

    Could you please check why this is happening? Mezzmo seems to be OK since it's running smoothly on an LG television.
    The television is connected over a wired connection to the computer.

    Kind regards,

    Günther

  2. #2
    Join Date
    Nov 2007
    Location
    Melbourne, Australia
    Posts
    11,616

    Default

    Hi Günther,

    Can you please send the logs to support (at) conceiva (dot) com and we'll check them out.

    Mezzmo Android: Install it on your tablet, smartphone, Android TV or Amazon Fire to browse and stream files from your Mezzmo library to all your devices. Full details at http://www.conceiva.com/products/mez...mo_android.asp
    Mezzmo for Kodi Add-on: Install it into Kodi to stream files from your Mezzmo library directly in Kodi. Full details at http://www.mezzmo.com/wiki/doku.php?...odi_user_guide
    Mezzmo for Roku App: Install it onto your Roku to stream files from your Mezzmo library. Full details at http://www.mezzmo.com/wiki/doku.php?...oku_user_guide
    Wiki: User Guides & Reference Manual at http://www.mezzmo.com/wiki
    Facebook: http://www.facebook.com/Mezzmo.DLNA.Server
    Twitter: https://twitter.com/conceiva_mezzmo
    Web: http://www.mezzmo.com

Similar Threads

  1. New LG 05.10.02 firmware for LCD TV & Mezzmo
    By Mietekdabest in forum Mezzmo Questions and Support
    Replies: 16
    Last Post: 01-10-2012, 09:59 AM
  2. Running Mezzmo on several computers
    By SurreyWinter in forum Mezzmo Questions and Support
    Replies: 3
    Last Post: 04-01-2011, 04:19 AM
  3. Mezzmo.exe running at 100% of CPU
    By ezepe in forum Mezzmo Questions and Support
    Replies: 4
    Last Post: 01-06-2011, 09:45 AM
  4. Samsung UE40B7020
    By Xilence in forum Mezzmo Questions and Support
    Replies: 1
    Last Post: 10-06-2010, 09:43 AM
  5. Replies: 0
    Last Post: 06-01-2010, 09:52 AM

Tags for this Thread

Bookmarks

Posting Permissions

  • You may not post new threads
  • You may not post replies
  • You may not post attachments
  • You may not edit your posts
  •