Page 1 of 2 12 LastLast
Results 1 to 10 of 18

Thread: Subtitles and Dual Audio

  1. #1
    Join Date
    Mar 2012
    Posts
    15

    Default Subtitles and Dual Audio

    good morning

    SUBTITLES
    I am able to see any type of file, however I'm not able to see subtitles in all movies... only in some of them... is there somewhere in the definitions I should change?

    other thing, is it possible to change subtitles font and size with mezzmo?

    DUAL AUDIO
    other thing is the dual audio... i have movies with dual audio capabilities... but it doesn't let me chose which one i want... it only loads the first. Again, is there somewhere in the defenitions I should change?

    Best Regards

  2. #2
    Join Date
    Nov 2007
    Location
    Melbourne, Australia
    Posts
    11,641

    Default

    At the moment Mezzmo only supports sending external (.srt/.smi) files to devices that support them, thus any font/size changes would need to be supported by your device.

    Dual audio is planned in a future version, but at the moment Mezzmo only reads in the first audio stream.

    Mezzmo Android: Install it on your tablet, smartphone, Android TV or Amazon Fire to browse and stream files from your Mezzmo library to all your devices. Full details at http://www.conceiva.com/products/mez...mo_android.asp
    Mezzmo for Kodi Add-on: Install it into Kodi to stream files from your Mezzmo library directly in Kodi. Full details at http://www.mezzmo.com/wiki/doku.php?...odi_user_guide
    Mezzmo for Roku App: Install it onto your Roku to stream files from your Mezzmo library. Full details at http://www.mezzmo.com/wiki/doku.php?...oku_user_guide
    Wiki: User Guides & Reference Manual at http://www.mezzmo.com/wiki
    Facebook: http://www.facebook.com/Mezzmo.DLNA.Server
    Twitter: https://twitter.com/conceiva_mezzmo
    Web: http://www.mezzmo.com

  3. #3
    Join Date
    Mar 2012
    Posts
    15

    Default

    Tks for your reply,

    Regarding the subtitles, my tv suports those types of subtitles.. but there are some movies that it doesn't recognize them...

    for example... my tv suports mp4 and srt

    i start that mp4 (therock.mp4 | therock.srt exactly same name) but it says "no subtitles"

    it happens in some mkv also... but only in few of them?

    do you know what can cause this? can it be that those files have properties that block the subtitles? :S

  4. #4
    Join Date
    Nov 2007
    Location
    Melbourne, Australia
    Posts
    11,641

    Default

    Quote Originally Posted by alvesricardo View Post
    do you know what can cause this?
    Possible reasons could be:

    • You may have placed the subtitle file (.SRT) into the folder after adding the video file into Mezzmo. In this case, right-click on the playlist/folder in the tree in Mezzmo and click Maintain Playlist. That will allow Mezzmo to pick up the subtitle file. Try streaming again and see if that works.
    • The subtitle file may be corrupted in such a way that your TV refuses to or is unable to to display it. As a test, rename a subtitle file that you know works to the same name as the one that does not display and see if that works. If it does, then you know the subtitle file is at fault & you will need to download another one or create another one.


    If none of that helps, then we will need to see a set of logs to see how the TV is communicating with Mezzmo media server with regards that subtitle file. Please enable logging (see this thread: http://forum.conceiva.com/showthread...nostic-logging) then try playing that video file. After you see no subtitles, stop your Mezzmo server, zip up the logs and send them to us at support [at] conceiva [dot] com.

    Mezzmo Android: Install it on your tablet, smartphone, Android TV or Amazon Fire to browse and stream files from your Mezzmo library to all your devices. Full details at http://www.conceiva.com/products/mez...mo_android.asp
    Mezzmo for Kodi Add-on: Install it into Kodi to stream files from your Mezzmo library directly in Kodi. Full details at http://www.mezzmo.com/wiki/doku.php?...odi_user_guide
    Mezzmo for Roku App: Install it onto your Roku to stream files from your Mezzmo library. Full details at http://www.mezzmo.com/wiki/doku.php?...oku_user_guide
    Wiki: User Guides & Reference Manual at http://www.mezzmo.com/wiki
    Facebook: http://www.facebook.com/Mezzmo.DLNA.Server
    Twitter: https://twitter.com/conceiva_mezzmo
    Web: http://www.mezzmo.com

  5. #5
    Join Date
    Mar 2012
    Posts
    15

    Default

    I compiled some information to share with you, so you may help me finding what can cause the issue, or what i'm doing wrong.
    (file/movie and subtitles are in the same folder)

    ---------------------------------------------------------------
    MOVIE: TheRock.mp4
    SUBTITLES: TheRock.srt

    FFmpeg Information:


    ffmpeg version N-36036-ga40f43d, Copyright (c) 2000-2011 the FFmpeg developers
    built on Dec 22 2011 13:44:49 with gcc 4.6.2
    configuration: --enable-memalign-hack --arch=x86 --target-os=mingw32 --cross-prefix=i686-w64-mingw32- --enable-static --disable-shared --enable-zlib --disable-postproc --prefix=/media/ffmpeg --enable-libmp3lame --enable-libx264 --enable-gpl --extra-libs='-lx264 -lpthread' --enable-runtime-cpudetect --extra-cflags=-I/home/dennis/cc/include --extra-ldflags=-L/home/dennis/cc/lib --pkg-config=pkg-config --disable-w32threads
    libavutil 51. 32. 0 / 51. 32. 0
    libavcodec 53. 46. 1 / 53. 46. 1
    libavformat 53. 27. 0 / 53. 27. 0
    libavdevice 53. 4. 0 / 53. 4. 0
    libavfilter 2. 53. 0 / 2. 53. 0
    libswscale 2. 1. 0 / 2. 1. 0
    Input #0, mov,mp4,m4a,3gp,3g2,mj2, from 'D:\Ricardo\Videos\Filmes\The Rock 1996 720p BRRip H.264 AAC-TheFalcon007[HDScene-Release]\TheRock.mp4':
    Metadata:
    major_brand : mp42
    minor_version : 0
    compatible_brands: isommp42
    creation_time : 2011-01-29 07:22:16
    encoder : Yamb 2.1.0.0 [http://yamb.unite-video.com]
    copyright :
    copyright-eng :
    Duration: 02:16:39.59, start: 0.000000, bitrate: 2986 kb/s
    Stream #0:0(und): Video: h264 (High) (avc1 / 0x31637661), yuv420p, 1280x544 [SAR 1:1 DAR 40:17], 2501 kb/s, 23.98 fps, 23.98 tbr, 10000k tbn, 47.95 tbc
    Metadata:
    creation_time : 2011-01-29 19:29:21
    handler_name : GPAC ISO Video Handler
    Stream #0:1(und): Audio: aac (mp4a / 0x6134706D), 48000 Hz, 5.1, s16, 399 kb/s
    Metadata:
    creation_time : 2011-01-29 07:23:41
    handler_name : GPAC ISO Audio Handler
    Stream #0:2(und): Audio: aac (mp4a / 0x6134706D), 48000 Hz, 5.1, s16, 79 kb/s
    Metadata:
    creation_time : 2011-01-29 07:24:08
    handler_name :
    At least one output file must be specified


    ---> DB Level Info: 41, 100
    ---> Frame rate: 23.98
    ---> Aspect ratio: 40:17



    ---------------------------------------------------------------
    MOVIE: The Whistleblower (HD).m4v
    SUBTITLES: The Whistleblower (HD).srt

    FFmpeg Information:


    ffmpeg version N-36036-ga40f43d, Copyright (c) 2000-2011 the FFmpeg developers
    built on Dec 22 2011 13:44:49 with gcc 4.6.2
    configuration: --enable-memalign-hack --arch=x86 --target-os=mingw32 --cross-prefix=i686-w64-mingw32- --enable-static --disable-shared --enable-zlib --disable-postproc --prefix=/media/ffmpeg --enable-libmp3lame --enable-libx264 --enable-gpl --extra-libs='-lx264 -lpthread' --enable-runtime-cpudetect --extra-cflags=-I/home/dennis/cc/include --extra-ldflags=-L/home/dennis/cc/lib --pkg-config=pkg-config --disable-w32threads
    libavutil 51. 32. 0 / 51. 32. 0
    libavcodec 53. 46. 1 / 53. 46. 1
    libavformat 53. 27. 0 / 53. 27. 0
    libavdevice 53. 4. 0 / 53. 4. 0
    libavfilter 2. 53. 0 / 2. 53. 0
    libswscale 2. 1. 0 / 2. 1. 0

    Seems stream 5 codec frame rate differs from container frame rate: 1000.00 (1000/1) -> 0.00 (1/300)
    Input #0, mov,mp4,m4a,3gp,3g2,mj2, from 'D:\Ricardo\Videos\Filmes\The.Whistleblower.BRRIP. MP4.x264.720p-HR\The Whistleblower (HD).m4v':
    Metadata:
    major_brand : MSNV
    minor_version : 512
    compatible_brands: isomiso2avc1MSNV
    creation_time : 1970-01-01 00:00:00
    description : A drama based on the experiences of Kathryn Bolkovac, a Nebraska cop who served as a peacekeeper in post-war Bosnia and outed the U.N. for covering up a sex scandal.
    synopsis : A drama based on the experiences of Kathryn Bolkovac, a Nebraska cop who served as a peacekeeper in post-war Bosnia and outed the U.N. for covering up a sex scandal.
    hd_video : 1
    title : The Whistleblower
    artist : HolyRoses
    date : 2011-06-23T07:00:00Z
    comment : A HolyRoses Production - https://thepiratebay.org/user/HolyRoses/
    media_type : 9
    copyright : 2011 HolyRoses. All Rights Reserved.
    genre : Drama
    encoder : HolyRoses
    Duration: 01:51:43.74, start: 0.000000, bitrate: 3617 kb/s
    Chapter #0.0: start 0.000000, end 300.000000
    Metadata:
    title : Chapter 1
    Chapter #0.1: start 300.000000, end 600.000000
    Metadata:
    title : Chapter 2
    Chapter #0.2: start 600.000000, end 900.000000
    Metadata:
    title : Chapter 3
    Chapter #0.3: start 900.000000, end 1200.000000
    Metadata:
    title : Chapter 4
    Chapter #0.4: start 1200.000000, end 1500.000000
    Metadata:
    title : Chapter 5
    Chapter #0.5: start 1500.000000, end 1800.000000
    Metadata:
    title : Chapter 6
    Chapter #0.6: start 1800.000000, end 2100.000000
    Metadata:
    title : Chapter 7
    Chapter #0.7: start 2100.000000, end 2400.000000
    Metadata:
    title : Chapter 8
    Chapter #0.8: start 2400.000000, end 2700.000000
    Metadata:
    title : Chapter 9
    Chapter #0.9: start 2700.000000, end 3000.000000
    Metadata:
    title : Chapter 10
    Chapter #0.10: start 3000.000000, end 3300.000000
    Metadata:
    title : Chapter 11
    Chapter #0.11: start 3300.000000, end 3600.000000
    Metadata:
    title : Chapter 12
    Chapter #0.12: start 3600.000000, end 3900.000000
    Metadata:
    title : Chapter 13
    Chapter #0.13: start 3900.000000, end 4200.000000
    Metadata:
    title : Chapter 14
    Chapter #0.14: start 4200.000000, end 4500.000000
    Metadata:
    title : Chapter 15
    Chapter #0.15: start 4500.000000, end 4800.000000
    Metadata:
    title : Chapter 16
    Chapter #0.16: start 4800.000000, end 5100.000000
    Metadata:
    title : Chapter 17
    Chapter #0.17: start 5100.000000, end 5400.000000
    Metadata:
    title : Chapter 18
    Chapter #0.18: start 5400.000000, end 5700.000000
    Metadata:
    title : Chapter 19
    Chapter #0.19: start 5700.000000, end 6000.000000
    Metadata:
    title : Chapter 20
    Chapter #0.20: start 6000.000000, end 6300.000000
    Metadata:
    title : Chapter 21
    Chapter #0.21: start 6300.000000, end 6703.697000
    Metadata:
    title : Chapter 22
    Stream #0:0(eng): Video: h264 (High) (avc1 / 0x31637661), yuv420p, 1280x544 [SAR 1:1 DAR 40:17], 3066 kb/s, 23.98 fps, 23.98 tbr, 24k tbn, 47.95 tbc
    Metadata:
    creation_time : 1970-01-01 00:00:00
    handler_name : VideoHandler
    Stream #0:1(eng): Audio: aac (mp4a / 0x6134706D), 48000 Hz, stereo, s16, 159 kb/s
    Metadata:
    creation_time : 1970-01-01 00:00:00
    handler_name :
    Stream #0:2(eng): Audio: ac3 (ac-3 / 0x332D6361), 48000 Hz, 5.1(side), s16, 384 kb/s
    Metadata:
    creation_time : 2011-10-28 03:45:54
    handler_name :
    Stream #0:3(eng): Subtitle: mov_text (tx3g / 0x67337874)
    Metadata:
    creation_time : 2011-10-28 03:45:54
    handler_name :
    Stream #0:4(eng): Subtitle: mov_text (text / 0x74786574)
    Metadata:
    creation_time : 2011-10-28 03:46:04
    handler_name :
    Stream #0:5(eng): Video: mjpeg (jpeg / 0x6765706A), yuvj420p, 640x272 [SAR 1:1 DAR 40:17], 0 kb/s, 0k fps, 0k tbr, 1k tbn, 1k tbc
    Metadata:
    creation_time : 2011-10-28 03:46:18
    handler_name :
    At least one output file must be specified


    ---> DB Level Info: 31, 100
    ---> Frame rate: 23.98
    ---> Aspect ratio: 40:17



    ---------------------------------------------------------------
    MOVIE: TheChangeUp.mkv
    SUBTITLES: TheChangeUp.srt

    FFmpeg Information:


    ffmpeg version N-36036-ga40f43d, Copyright (c) 2000-2011 the FFmpeg developers
    built on Dec 22 2011 13:44:49 with gcc 4.6.2
    configuration: --enable-memalign-hack --arch=x86 --target-os=mingw32 --cross-prefix=i686-w64-mingw32- --enable-static --disable-shared --enable-zlib --disable-postproc --prefix=/media/ffmpeg --enable-libmp3lame --enable-libx264 --enable-gpl --extra-libs='-lx264 -lpthread' --enable-runtime-cpudetect --extra-cflags=-I/home/dennis/cc/include --extra-ldflags=-L/home/dennis/cc/lib --pkg-config=pkg-config --disable-w32threads
    libavutil 51. 32. 0 / 51. 32. 0
    libavcodec 53. 46. 1 / 53. 46. 1
    libavformat 53. 27. 0 / 53. 27. 0
    libavdevice 53. 4. 0 / 53. 4. 0
    libavfilter 2. 53. 0 / 2. 53. 0
    libswscale 2. 1. 0 / 2. 1. 0

    Seems stream 0 codec frame rate differs from container frame rate: 47.95 (5000000/104271) -> 23.98 (24000/1001)
    Input #0, matroska,webm, from 'D:\Ricardo\Videos\Filmes\The.Change-Up.2011.UNRATED.BDRip.x264.DTS-Zoo\TheChangeUp.mkv':
    Metadata:
    title : The.Change-Up.2011.UNRATED.BDRip.x264.DTS-Zoo
    Duration: 01:58:09.07, start: 0.000000, bitrate: 2486 kb/s
    Stream #0:0: Video: h264 (High), yuv420p, 1024x432 [SAR 1:1 DAR 64:27], 23.98 fps, 23.98 tbr, 1k tbn, 47.95 tbc (default)
    Metadata:
    title : The.Change-Up.2011.UNRATED.BDRip.x264.DTS-Zoo
    Stream #0:1: Audio: dts (DTS), 48000 Hz, 5.1(side), s16, 768 kb/s (default)
    Metadata:
    title : The.Change-Up.2011.UNRATED.BDRip.x264.DTS-Zoo
    At least one output file must be specified


    ---> DB Level Info: 41, 100
    ---> Frame rate: 23.98
    ---> Aspect ratio: 64:27



    ---------------------------------------------------------------
    MOVIE: Hugo 2011 720p BRRip [A Releasege H264].mp4
    SUBTITLES: Hugo 2011 720p BRRip [A Releasege H264].srt

    FFmpeg Information:


    ffmpeg version N-36036-ga40f43d, Copyright (c) 2000-2011 the FFmpeg developers
    built on Dec 22 2011 13:44:49 with gcc 4.6.2
    configuration: --enable-memalign-hack --arch=x86 --target-os=mingw32 --cross-prefix=i686-w64-mingw32- --enable-static --disable-shared --enable-zlib --disable-postproc --prefix=/media/ffmpeg --enable-libmp3lame --enable-libx264 --enable-gpl --extra-libs='-lx264 -lpthread' --enable-runtime-cpudetect --extra-cflags=-I/home/dennis/cc/include --extra-ldflags=-L/home/dennis/cc/lib --pkg-config=pkg-config --disable-w32threads
    libavutil 51. 32. 0 / 51. 32. 0
    libavcodec 53. 46. 1 / 53. 46. 1
    libavformat 53. 27. 0 / 53. 27. 0
    libavdevice 53. 4. 0 / 53. 4. 0
    libavfilter 2. 53. 0 / 2. 53. 0
    libswscale 2. 1. 0 / 2. 1. 0
    Input #0, mov,mp4,m4a,3gp,3g2,mj2, from 'D:\Ricardo\Videos\Filmes\Hugo 2011 720p BRRip [A Release-Lounge H264]\Hugo 2011 720p BRRip [A Releasege H264].mp4':
    Metadata:
    major_brand : mp42
    minor_version : 0
    compatible_brands: isomavc1mp42
    creation_time : 2012-02-21 17:45:09
    encoder : Yamb 2.1.0.0 [http://yamb.unite-video.com]
    Duration: 02:06:21.07, start: 0.000000, bitrate: 2554 kb/s
    Stream #0:0(und): Video: h264 (High) (avc1 / 0x31637661), yuv420p, 1280x720 [SAR 1:1 DAR 16:9], 2105 kb/s, 23.98 fps, 23.98 tbr, 96k tbn, 47.95 tbc
    Metadata:
    creation_time : 2012-02-21 17:45:09
    handler_name : ?
    Stream #0:1(und): Audio: aac (mp4a / 0x6134706D), 48000 Hz, 5.1, s16, 315 kb/s
    Metadata:
    creation_time : 2012-02-21 17:45:22
    handler_name : ?
    Stream #0:2(und): Audio: aac (mp4a / 0x6134706D), 48000 Hz, stereo, s16, 127 kb/s
    Metadata:
    creation_time : 2012-02-21 17:45:28
    handler_name :
    At least one output file must be specified


    ---> DB Level Info: 41, 100
    ---> Frame rate: 23,98
    ---> Aspect ratio: 16:9



    ---------------------------------------------------------------
    MOVIE: PussInBoots1080p.mp4
    SUBTITLES: PussInBoots1080p.srt

    FFmpeg Information:


    ffmpeg version N-36036-ga40f43d, Copyright (c) 2000-2011 the FFmpeg developers
    built on Dec 22 2011 13:44:49 with gcc 4.6.2
    configuration: --enable-memalign-hack --arch=x86 --target-os=mingw32 --cross-prefix=i686-w64-mingw32- --enable-static --disable-shared --enable-zlib --disable-postproc --prefix=/media/ffmpeg --enable-libmp3lame --enable-libx264 --enable-gpl --extra-libs='-lx264 -lpthread' --enable-runtime-cpudetect --extra-cflags=-I/home/dennis/cc/include --extra-ldflags=-L/home/dennis/cc/lib --pkg-config=pkg-config --disable-w32threads
    libavutil 51. 32. 0 / 51. 32. 0
    libavcodec 53. 46. 1 / 53. 46. 1
    libavformat 53. 27. 0 / 53. 27. 0
    libavdevice 53. 4. 0 / 53. 4. 0
    libavfilter 2. 53. 0 / 2. 53. 0
    libswscale 2. 1. 0 / 2. 1. 0
    Input #0, mov,mp4,m4a,3gp,3g2,mj2, from 'D:\Ricardo\Videos\Filmes\Puss In Boots 2011 1080p BRRip x264 AAC - KiNGDOM\PussInBoots1080p.mp4':
    Metadata:
    major_brand : isom
    minor_version : 1
    compatible_brands: isom
    creation_time : 2012-02-17 11:47:26
    Duration: 01:30:14.63, start: 0.000000, bitrate: 3426 kb/s
    Stream #0:0(und): Video: h264 (High) (avc1 / 0x31637661), yuv420p, 1920x816 [SAR 1:1 DAR 40:17], 3194 kb/s, 23.98 fps, 23.98 tbr, 24k tbn, 47.95 tbc
    Metadata:
    creation_time : 2012-02-16 11:54:04
    handler_name : GPAC ISO Video Handler
    Stream #0:1(und): Audio: aac (mp4a / 0x6134706D), 48000 Hz, 5.1, s16, 228 kb/s
    Metadata:
    creation_time : 2012-02-17 11:48:35
    handler_name : GPAC ISO Audio Handler
    At least one output file must be specified


    ---> DB Level Info: 41, 100
    ---> Frame rate: 23.98
    ---> Aspect ratio: 40:17


    ---------------------------------------------------------------
    MOVIE: TheGirlWithTheDragonTattoo.avi
    SUBTITLES: TheGirlWithTheDragonTattoo.srt

    FFmpeg Information:


    ffmpeg version N-36036-ga40f43d, Copyright (c) 2000-2011 the FFmpeg developers
    built on Dec 22 2011 13:44:49 with gcc 4.6.2
    configuration: --enable-memalign-hack --arch=x86 --target-os=mingw32 --cross-prefix=i686-w64-mingw32- --enable-static --disable-shared --enable-zlib --disable-postproc --prefix=/media/ffmpeg --enable-libmp3lame --enable-libx264 --enable-gpl --extra-libs='-lx264 -lpthread' --enable-runtime-cpudetect --extra-cflags=-I/home/dennis/cc/include --extra-ldflags=-L/home/dennis/cc/lib --pkg-config=pkg-config --disable-w32threads
    libavutil 51. 32. 0 / 51. 32. 0
    libavcodec 53. 46. 1 / 53. 46. 1
    libavformat 53. 27. 0 / 53. 27. 0
    libavdevice 53. 4. 0 / 53. 4. 0
    libavfilter 2. 53. 0 / 2. 53. 0
    libswscale 2. 1. 0 / 2. 1. 0
    [mpeg4 @ 01758ca0] Invalid and inefficient vfw-avi packed B frames detected

    Seems stream 0 codec frame rate differs from container frame rate: 23.98 (65535/2733) -> 23.98 (2500000/104271)
    Input #0, avi, from 'D:\Ricardo\Videos\Filmes\The.Girl.With.The.Dragon .Tattoo.2011.720p.BRRip.XviD.AC3-ViSiON\TheGirlWithTheDragonTattoo.avi':
    Metadata:
    encoder : VirtualDubMod 1.5.10.2 (build 2542/release)
    Duration: 02:38:08.45, start: 0.000000, bitrate: 3474 kb/s
    Stream #0:0: Video: mpeg4 (Advanced Simple Profile) (XVID / 0x44495658), yuv420p, 1280x536 [SAR 1:1 DAR 160:67], 23.98 tbr, 23.98 tbn, 23.98 tbc
    Stream #0:1: Audio: ac3 ([0] [0][0] / 0x2000), 48000 Hz, 5.1(side), s16, 448 kb/s
    At least one output file must be specified


    ---> DB Level Info: 5, 15
    ---> Frame rate: 23.98
    ---> Aspect ratio: 160:67




    --------------------------

    I hope this helps!

    Best Regards
    Ricardo

  6. #6
    Join Date
    Mar 2012
    Posts
    15

    Default

    Quote Originally Posted by Paul View Post
    Possible reasons could be:

    • ...In this case, right-click on the playlist/folder in the tree in Mezzmo and click Maintain Playlist. That will allow Mezzmo to pick up the subtitle file. Try streaming again and see if that works.

    I just read this part now. Some of the files i mentioned may not be "maintained" already... but some are.
    However if you could please take a look at the information of the files tell me if there is some limitation.

  7. #7
    Join Date
    Nov 2007
    Location
    Melbourne, Australia
    Posts
    11,641

    Default

    Your files looks fine - although the SRT files could be corrupted so that your DLNA device cannot display them (I cannot tell from just the filename). Its best if you send us a set of logs. We mention how to do this in a previous post on this thread. After we get your logs, we may know more about why the subtitles are not appearing. Also, please tell us what DLNA device you are streaming to.

    Mezzmo Android: Install it on your tablet, smartphone, Android TV or Amazon Fire to browse and stream files from your Mezzmo library to all your devices. Full details at http://www.conceiva.com/products/mez...mo_android.asp
    Mezzmo for Kodi Add-on: Install it into Kodi to stream files from your Mezzmo library directly in Kodi. Full details at http://www.mezzmo.com/wiki/doku.php?...odi_user_guide
    Mezzmo for Roku App: Install it onto your Roku to stream files from your Mezzmo library. Full details at http://www.mezzmo.com/wiki/doku.php?...oku_user_guide
    Wiki: User Guides & Reference Manual at http://www.mezzmo.com/wiki
    Facebook: http://www.facebook.com/Mezzmo.DLNA.Server
    Twitter: https://twitter.com/conceiva_mezzmo
    Web: http://www.mezzmo.com

  8. #8
    Join Date
    Mar 2012
    Posts
    15

    Default

    i'll do the logs later today.

    I'm streaming to a Panasonic P42G30E (Viera TV) G30

    All the files run... it's just the subtitles that (some of them) appear "Doesn't exist"

  9. #9
    Join Date
    Nov 2007
    Location
    Melbourne, Australia
    Posts
    11,641

    Default

    OK - your TV model helps us understand what may be happening. Panasonic Viera TVs only display external subtitles for DivX (AVI) files. That will explain why you see them for some files (presumably your DivX/AVI files) and not for other files. Unfortunately, there's nothing we can do about this - its a Viera firmware issue.

    Mezzmo Android: Install it on your tablet, smartphone, Android TV or Amazon Fire to browse and stream files from your Mezzmo library to all your devices. Full details at http://www.conceiva.com/products/mez...mo_android.asp
    Mezzmo for Kodi Add-on: Install it into Kodi to stream files from your Mezzmo library directly in Kodi. Full details at http://www.mezzmo.com/wiki/doku.php?...odi_user_guide
    Mezzmo for Roku App: Install it onto your Roku to stream files from your Mezzmo library. Full details at http://www.mezzmo.com/wiki/doku.php?...oku_user_guide
    Wiki: User Guides & Reference Manual at http://www.mezzmo.com/wiki
    Facebook: http://www.facebook.com/Mezzmo.DLNA.Server
    Twitter: https://twitter.com/conceiva_mezzmo
    Web: http://www.mezzmo.com

  10. #10
    Join Date
    Mar 2012
    Posts
    15

    Default

    that's strange.. because i already could see mkv files with srt subtitles from disk to tv without mezzmo
    i just tried this one after doing the maintain library:

    MOVIE: TheGirlWithTheDragonTattoo.avi
    SUBTITLES: TheGirlWithTheDragonTattoo.srt

    FFmpeg Information:


    ffmpeg version N-36036-ga40f43d, Copyright (c) 2000-2011 the FFmpeg developers
    built on Dec 22 2011 13:44:49 with gcc 4.6.2
    configuration: --enable-memalign-hack --arch=x86 --target-os=mingw32 --cross-prefix=i686-w64-mingw32- --enable-static --disable-shared --enable-zlib --disable-postproc --prefix=/media/ffmpeg --enable-libmp3lame --enable-libx264 --enable-gpl --extra-libs='-lx264 -lpthread' --enable-runtime-cpudetect --extra-cflags=-I/home/dennis/cc/include --extra-ldflags=-L/home/dennis/cc/lib --pkg-config=pkg-config --disable-w32threads
    libavutil 51. 32. 0 / 51. 32. 0
    libavcodec 53. 46. 1 / 53. 46. 1
    libavformat 53. 27. 0 / 53. 27. 0
    libavdevice 53. 4. 0 / 53. 4. 0
    libavfilter 2. 53. 0 / 2. 53. 0
    libswscale 2. 1. 0 / 2. 1. 0
    [mpeg4 @ 01758ca0] Invalid and inefficient vfw-avi packed B frames detected

    Seems stream 0 codec frame rate differs from container frame rate: 23.98 (65535/2733) -> 23.98 (2500000/104271)
    Input #0, avi, from 'D:\Ricardo\Videos\Filmes\The.Girl.With.The.Dragon .Tattoo.2011.720p.BRRip.XviD.AC3-ViSiON\TheGirlWithTheDragonTattoo.avi':
    Metadata:
    encoder : VirtualDubMod 1.5.10.2 (build 2542/release)
    Duration: 02:38:08.45, start: 0.000000, bitrate: 3474 kb/s
    Stream #0:0: Video: mpeg4 (Advanced Simple Profile) (XVID / 0x44495658), yuv420p, 1280x536 [SAR 1:1 DAR 160:67], 23.98 tbr, 23.98 tbn, 23.98 tbc
    Stream #0:1: Audio: ac3 ([0] [0][0] / 0x2000), 48000 Hz, 5.1(side), s16, 448 kb/s
    At least one output file must be specified


    ---> DB Level Info: 5, 15
    ---> Frame rate: 23.98
    ---> Aspect ratio: 160:67

    but it didn't work also
    Last edited by alvesricardo; 03-20-2012 at 01:02 AM.

Similar Threads

  1. Few questions before buying regarding Subtitles, Audio streams, MKVs
    By alef in forum Mezzmo Questions and Support
    Replies: 1
    Last Post: 01-30-2012, 09:54 AM
  2. (BDRemux 1080p x264 AC3 Dual Esp-Eng DTS Esp + Subs)
    By ziaboga in forum Mezzmo Questions and Support
    Replies: 5
    Last Post: 11-21-2011, 10:27 AM
  3. Playing subtitles embedded in mkv and selection of audio
    By KennyZz in forum Mezzmo Questions and Support
    Replies: 23
    Last Post: 10-17-2011, 05:44 PM
  4. Dual Video and Photos In Library
    By mcutugno in forum Mezzmo Questions and Support
    Replies: 3
    Last Post: 01-18-2011, 09:48 AM
  5. Dual Home/VPN Network Connectivity Issue
    By GreenOnyx in forum Mezzmo Questions and Support
    Replies: 2
    Last Post: 06-24-2008, 12:57 AM

Tags for this Thread

Bookmarks

Posting Permissions

  • You may not post new threads
  • You may not post replies
  • You may not post attachments
  • You may not edit your posts
  •