Page 2 of 2 FirstFirst 12
Results 11 to 18 of 18

Thread: FFMpeg takes 100% CPU

  1. #11

    Default

    AVI Files:
    ffmpeg version N-36036-ga40f43d, Copyright (c) 2000-2011 the FFmpeg developers
    built on Dec 22 2011 13:44:49 with gcc 4.6.2
    configuration: --enable-memalign-hack --arch=x86 --target-os=mingw32 --cross-prefix=i686-w64-mingw32- --enable-static --disable-shared --enable-zlib --disable-postproc --prefix=/media/ffmpeg --enable-libmp3lame --enable-libx264 --enable-gpl --extra-libs='-lx264 -lpthread' --enable-runtime-cpudetect --extra-cflags=-I/home/dennis/cc/include --extra-ldflags=-L/home/dennis/cc/lib --pkg-config=pkg-config --disable-w32threads
    libavutil 51. 32. 0 / 51. 32. 0
    libavcodec 53. 46. 1 / 53. 46. 1
    libavformat 53. 27. 0 / 53. 27. 0
    libavdevice 53. 4. 0 / 53. 4. 0
    libavfilter 2. 53. 0 / 2. 53. 0
    libswscale 2. 1. 0 / 2. 1. 0

    Seems stream 0 codec frame rate differs from container frame rate: 47.95 (8000000/166833) -> 23.98 (24000/1001)
    Input #0, matroska,webm, from 'E:\ServerFolders\Videos\Blue.Planet.1080p.BluRay. x264-REQ\blue.planet.e01.repack.1080p.bluray.x264-req.mkv':
    Duration: 00:48:03.50, start: 0.000000, bitrate: 11835 kb/s
    Stream #0:0(eng): Video: h264 (High), yuv420p, 1920x1080, SAR 1:1 DAR 16:9, 23.98 fps, 23.98 tbr, 1k tbn, 47.95 tbc
    Stream #0:1(eng): Audio: dts (DTS), 48000 Hz, 5.1(side), s16, 1536 kb/s (default)
    Stream #0:2(eng): Subtitle: text
    At least one output file must be specified


    ---> DB Level Info: 41, 100
    ---> Frame rate: 23.98
    ---> Aspect ratio: 16:9

  2. #12

    Default

    M2TS files:
    ffmpeg version N-36036-ga40f43d, Copyright (c) 2000-2011 the FFmpeg developers
    built on Dec 22 2011 13:44:49 with gcc 4.6.2
    configuration: --enable-memalign-hack --arch=x86 --target-os=mingw32 --cross-prefix=i686-w64-mingw32- --enable-static --disable-shared --enable-zlib --disable-postproc --prefix=/media/ffmpeg --enable-libmp3lame --enable-libx264 --enable-gpl --extra-libs='-lx264 -lpthread' --enable-runtime-cpudetect --extra-cflags=-I/home/dennis/cc/include --extra-ldflags=-L/home/dennis/cc/lib --pkg-config=pkg-config --disable-w32threads
    libavutil 51. 32. 0 / 51. 32. 0
    libavcodec 53. 46. 1 / 53. 46. 1
    libavformat 53. 27. 0 / 53. 27. 0
    libavdevice 53. 4. 0 / 53. 4. 0
    libavfilter 2. 53. 0 / 2. 53. 0
    libswscale 2. 1. 0 / 2. 1. 0
    [NULL @ 02cbba40] start time is not set in estimate_timings_from_pts
    [NULL @ 02cc1a00] start time is not set in estimate_timings_from_pts
    [NULL @ 02cc7ae0] start time is not set in estimate_timings_from_pts
    [NULL @ 02ccdaa0] start time is not set in estimate_timings_from_pts
    [NULL @ 02cd3a00] start time is not set in estimate_timings_from_pts
    [NULL @ 02cd9ac0] start time is not set in estimate_timings_from_pts
    [NULL @ 02cf4080] start time is not set in estimate_timings_from_pts
    [NULL @ 02cfa400] start time is not set in estimate_timings_from_pts
    [NULL @ 02d05700] start time is not set in estimate_timings_from_pts
    [NULL @ 02d0b680] start time is not set in estimate_timings_from_pts
    [NULL @ 02d115a0] start time is not set in estimate_timings_from_pts
    [NULL @ 02d17520] start time is not set in estimate_timings_from_pts
    [NULL @ 02d1d440] start time is not set in estimate_timings_from_pts
    [NULL @ 02d233e0] start time is not set in estimate_timings_from_pts
    [NULL @ 02d292e0] start time is not set in estimate_timings_from_pts
    [NULL @ 02d2f280] start time is not set in estimate_timings_from_pts
    [NULL @ 02d351a0] start time is not set in estimate_timings_from_pts
    [NULL @ 02d3b140] start time is not set in estimate_timings_from_pts
    [NULL @ 02d41040] start time is not set in estimate_timings_from_pts
    [NULL @ 02c770a0] start time is not set in estimate_timings_from_pts
    [NULL @ 02c774c0] start time is not set in estimate_timings_from_pts
    [NULL @ 02c77980] start time is not set in estimate_timings_from_pts
    [NULL @ 02d580c0] start time is not set in estimate_timings_from_pts
    [NULL @ 02d5e000] start time is not set in estimate_timings_from_pts
    [NULL @ 02d5e440] start time is not set in estimate_timings_from_pts
    [NULL @ 02d5e880] start time is not set in estimate_timings_from_pts
    [NULL @ 02d5ecc0] start time is not set in estimate_timings_from_pts
    [NULL @ 02d5f120] start time is not set in estimate_timings_from_pts
    [NULL @ 02d5f560] start time is not set in estimate_timings_from_pts
    Input #0, mpegts, from 'E:\ServerFolders\Videos\Transformers Dark of The Moon 1080p\00800.m2ts':
    Duration: 02:34:23.33, start: 11.608967, bitrate: 40720 kb/s
    Program 1
    Stream #0:0[0x1011]: Video: h264 (High) (HDMV / 0x564D4448), yuv420p, 1920x1080 [SAR 1:1 DAR 16:9], 23.98 fps, 23.98 tbr, 90k tbn, 47.95 tbc
    Stream #0:1[0x1100]: Audio: truehd (AC-3 / 0x332D4341), 48000 Hz, 7.1, s32
    Stream #0:2[0x1100]: Audio: ac3 (AC-3 / 0x332D4341), 48000 Hz, 5.1(side), s16, 640 kb/s
    Stream #0:3[0x1101]: Audio: ac3 (AC-3 / 0x332D4341), 48000 Hz, 5.1(side), s16, 640 kb/s
    Stream #0:4[0x1102]: Audio: ac3 (AC-3 / 0x332D4341), 48000 Hz, 5.1(side), s16, 640 kb/s
    Stream #0:5[0x1103]: Audio: ac3 (AC-3 / 0x332D4341), 48000 Hz, 5.1(side), s16, 640 kb/s
    Stream #0:6[0x1104]: Audio: ac3 (AC-3 / 0x332D4341), 48000 Hz, 5.1(side), s16, 640 kb/s
    Stream #0:7[0x1105]: Audio: ac3 (AC-3 / 0x332D4341), 48000 Hz, 5.1(side), s16, 640 kb/s
    Stream #0:8[0x1106]: Audio: ac3 (AC-3 / 0x332D4341), 48000 Hz, 5.1(side), s16, 640 kb/s
    Stream #0:9[0x1200]: Subtitle: hdmv_pgs_subtitle ([144][0][0][0] / 0x0090)
    Stream #0:10[0x1201]: Subtitle: hdmv_pgs_subtitle ([144][0][0][0] / 0x0090)
    Stream #0:11[0x1202]: Subtitle: hdmv_pgs_subtitle ([144][0][0][0] / 0x0090)
    Stream #0:12[0x1203]: Subtitle: hdmv_pgs_subtitle ([144][0][0][0] / 0x0090)
    Stream #0:13[0x1204]: Subtitle: hdmv_pgs_subtitle ([144][0][0][0] / 0x0090)
    Stream #0:14[0x1205]: Subtitle: hdmv_pgs_subtitle ([144][0][0][0] / 0x0090)
    Stream #0:15[0x1206]: Subtitle: hdmv_pgs_subtitle ([144][0][0][0] / 0x0090)
    Stream #0:16[0x1207]: Subtitle: hdmv_pgs_subtitle ([144][0][0][0] / 0x0090)
    Stream #0:17[0x1208]: Subtitle: hdmv_pgs_subtitle ([144][0][0][0] / 0x0090)
    Stream #0:18[0x1209]: Subtitle: hdmv_pgs_subtitle ([144][0][0][0] / 0x0090)
    Stream #0:19[0x120a]: Subtitle: hdmv_pgs_subtitle ([144][0][0][0] / 0x0090)
    Stream #0:20[0x120b]: Subtitle: hdmv_pgs_subtitle ([144][0][0][0] / 0x0090)
    Stream #0:21[0x120c]: Subtitle: hdmv_pgs_subtitle ([144][0][0][0] / 0x0090)
    Stream #0:22[0x120d]: Subtitle: hdmv_pgs_subtitle ([144][0][0][0] / 0x0090)
    Stream #0:23[0x120e]: Subtitle: hdmv_pgs_subtitle ([144][0][0][0] / 0x0090)
    Stream #0:24[0x120f]: Subtitle: hdmv_pgs_subtitle ([144][0][0][0] / 0x0090)
    Stream #0:25[0x1210]: Subtitle: hdmv_pgs_subtitle ([144][0][0][0] / 0x0090)
    Stream #0:26[0x1211]: Subtitle: hdmv_pgs_subtitle ([144][0][0][0] / 0x0090)
    Stream #0:27[0x1212]: Subtitle: hdmv_pgs_subtitle ([144][0][0][0] / 0x0090)
    Stream #0:28[0x1213]: Subtitle: hdmv_pgs_subtitle ([144][0][0][0] / 0x0090)
    Stream #0:29[0x1214]: Subtitle: hdmv_pgs_subtitle ([144][0][0][0] / 0x0090)
    Stream #0:30[0x1215]: Subtitle: hdmv_pgs_subtitle ([144][0][0][0] / 0x0090)
    Stream #0:31[0x1216]: Subtitle: hdmv_pgs_subtitle ([144][0][0][0] / 0x0090)
    Stream #0:32[0x1217]: Subtitle: hdmv_pgs_subtitle ([144][0][0][0] / 0x0090)
    Stream #0:33[0x1218]: Subtitle: hdmv_pgs_subtitle ([144][0][0][0] / 0x0090)
    Stream #0:34[0x1219]: Subtitle: hdmv_pgs_subtitle ([144][0][0][0] / 0x0090)
    Stream #0:35[0x121a]: Subtitle: hdmv_pgs_subtitle ([144][0][0][0] / 0x0090)
    Stream #0:36[0x121b]: Subtitle: hdmv_pgs_subtitle ([144][0][0][0] / 0x0090)
    Stream #0:37[0x121c]: Subtitle: hdmv_pgs_subtitle ([144][0][0][0] / 0x0090)
    At least one output file must be specified


    ---> DB Level Info: 41, 100
    ---> Frame rate: 23.98
    ---> Aspect ratio: 16:9

  3. #13

    Default

    720PMKV Files

    ffmpeg version N-36036-ga40f43d, Copyright (c) 2000-2011 the FFmpeg developers
    built on Dec 22 2011 13:44:49 with gcc 4.6.2
    configuration: --enable-memalign-hack --arch=x86 --target-os=mingw32 --cross-prefix=i686-w64-mingw32- --enable-static --disable-shared --enable-zlib --disable-postproc --prefix=/media/ffmpeg --enable-libmp3lame --enable-libx264 --enable-gpl --extra-libs='-lx264 -lpthread' --enable-runtime-cpudetect --extra-cflags=-I/home/dennis/cc/include --extra-ldflags=-L/home/dennis/cc/lib --pkg-config=pkg-config --disable-w32threads
    libavutil 51. 32. 0 / 51. 32. 0
    libavcodec 53. 46. 1 / 53. 46. 1
    libavformat 53. 27. 0 / 53. 27. 0
    libavdevice 53. 4. 0 / 53. 4. 0
    libavfilter 2. 53. 0 / 2. 53. 0
    libswscale 2. 1. 0 / 2. 1. 0
    Input #0, matroska,webm, from 'E:\ServerFolders\Videos\Delhi Belly (2011) Dual Audio 720p DVDRip AC3 x264 TmG\Delhi Belly (2011) Dual Audio 720p DVDRip AC3 x264 TmG.mkv':
    Duration: 01:42:49.49, start: 0.000000, bitrate: 6092 kb/s
    Stream #0:0(eng): Video: h264 (High), yuv420p, 1280x544 [SAR 1:1 DAR 40:17], 23.98 fps, 23.98 tbr, 1k tbn, 47.95 tbc (default)
    Stream #0:1(eng): Audio: ac3, 48000 Hz, 5.1(side), s16, 448 kb/s (default)
    Stream #0:2(hin): Audio: ac3, 48000 Hz, 5.1(side), s16, 448 kb/s
    Stream #0:3(eng): Subtitle: dvd_subtitle (default)
    Stream #0:4(eng): Subtitle: dvd_subtitle
    At least one output file must be specified


    ---> DB Level Info: 31, 100
    ---> Frame rate: 23.98
    ---> Aspect ratio: 40:17

  4. #14

    Default

    MP4 720P Files

    ffmpeg version N-36036-ga40f43d, Copyright (c) 2000-2011 the FFmpeg developers
    built on Dec 22 2011 13:44:49 with gcc 4.6.2
    configuration: --enable-memalign-hack --arch=x86 --target-os=mingw32 --cross-prefix=i686-w64-mingw32- --enable-static --disable-shared --enable-zlib --disable-postproc --prefix=/media/ffmpeg --enable-libmp3lame --enable-libx264 --enable-gpl --extra-libs='-lx264 -lpthread' --enable-runtime-cpudetect --extra-cflags=-I/home/dennis/cc/include --extra-ldflags=-L/home/dennis/cc/lib --pkg-config=pkg-config --disable-w32threads
    libavutil 51. 32. 0 / 51. 32. 0
    libavcodec 53. 46. 1 / 53. 46. 1
    libavformat 53. 27. 0 / 53. 27. 0
    libavdevice 53. 4. 0 / 53. 4. 0
    libavfilter 2. 53. 0 / 2. 53. 0
    libswscale 2. 1. 0 / 2. 1. 0
    Input #0, mov,mp4,m4a,3gp,3g2,mj2, from 'E:\ServerFolders\Videos\Zee Cine Awards 5th Feb 2012 720p x264 HD MTR(www.mastitorrents.com)\Zee Cine Awards 5th Feb 2012 720p x264 HD MTR(www.mastitorrents.com).mp4':
    Metadata:
    major_brand : M4V
    minor_version : 1
    compatible_brands: isomavc1M4V mp42M4A
    creation_time : 2012-02-06 19:21:00
    Duration: 02:46:21.78, start: 0.000000, bitrate: 1853 kb/s
    Stream #0:0(hin): Video: h264 (High) (avc1 / 0x31637661), yuv420p, 1280x720, 1799 kb/s, 50 fps, 50 tbr, 200 tbn, 100 tbc
    Metadata:
    creation_time : 2012-02-06 19:21:00
    handler_name : ?
    Stream #0:1(hin): Audio: aac (mp4a / 0x6134706D), 48000 Hz, stereo, s16, 48 kb/s
    Metadata:
    creation_time : 2012-02-06 19:23:04
    handler_name : GPAC ISO Audio Handler
    At least one output file must be specified


    ---> DB Level Info: 50, 100
    ---> Frame rate: 50.00
    ---> Aspect ratio:

  5. #15

    Default

    Few More 1080P MKV FFMpeg information:
    ffmpeg version N-36036-ga40f43d, Copyright (c) 2000-2011 the FFmpeg developers
    built on Dec 22 2011 13:44:49 with gcc 4.6.2
    configuration: --enable-memalign-hack --arch=x86 --target-os=mingw32 --cross-prefix=i686-w64-mingw32- --enable-static --disable-shared --enable-zlib --disable-postproc --prefix=/media/ffmpeg --enable-libmp3lame --enable-libx264 --enable-gpl --extra-libs='-lx264 -lpthread' --enable-runtime-cpudetect --extra-cflags=-I/home/dennis/cc/include --extra-ldflags=-L/home/dennis/cc/lib --pkg-config=pkg-config --disable-w32threads
    libavutil 51. 32. 0 / 51. 32. 0
    libavcodec 53. 46. 1 / 53. 46. 1
    libavformat 53. 27. 0 / 53. 27. 0
    libavdevice 53. 4. 0 / 53. 4. 0
    libavfilter 2. 53. 0 / 2. 53. 0
    libswscale 2. 1. 0 / 2. 1. 0

    Seems stream 0 codec frame rate differs from container frame rate: 47.95 (20000000/417083) -> 23.98 (24000/1001)
    Input #0, matroska,webm, from 'E:\ServerFolders\Videos\Recoil.2011.BluRay.1080p. DTS.x264-CHD\Recoil.2011.BluRay.1080p.DTS.x264-CHD.mkv':
    Duration: 01:33:50.64, start: 0.000000, bitrate: 13290 kb/s
    Stream #0:0(eng): Video: h264 (High), yuv420p, 1920x1080, SAR 1:1 DAR 16:9, 23.98 fps, 23.98 tbr, 1k tbn, 47.95 tbc (default)
    Metadata:
    title : Recoil.2011.BluRay.1080p.DTS.x264-CHD
    Stream #0:1(eng): Audio: dts (DTS), 48000 Hz, 5.1(side), s16, 1536 kb/s (default)
    Metadata:
    title : dts 5.1 1536kbps
    At least one output file must be specified


    ---> DB Level Info: 41, 100
    ---> Frame rate: 23.98
    ---> Aspect ratio: 16:9

    ------------------------------------------------------------------------------------------

    ffmpeg version N-36036-ga40f43d, Copyright (c) 2000-2011 the FFmpeg developers
    built on Dec 22 2011 13:44:49 with gcc 4.6.2
    configuration: --enable-memalign-hack --arch=x86 --target-os=mingw32 --cross-prefix=i686-w64-mingw32- --enable-static --disable-shared --enable-zlib --disable-postproc --prefix=/media/ffmpeg --enable-libmp3lame --enable-libx264 --enable-gpl --extra-libs='-lx264 -lpthread' --enable-runtime-cpudetect --extra-cflags=-I/home/dennis/cc/include --extra-ldflags=-L/home/dennis/cc/lib --pkg-config=pkg-config --disable-w32threads
    libavutil 51. 32. 0 / 51. 32. 0
    libavcodec 53. 46. 1 / 53. 46. 1
    libavformat 53. 27. 0 / 53. 27. 0
    libavdevice 53. 4. 0 / 53. 4. 0
    libavfilter 2. 53. 0 / 2. 53. 0
    libswscale 2. 1. 0 / 2. 1. 0

    Seems stream 0 codec frame rate differs from container frame rate: 47.95 (5000000/104271) -> 23.98 (24000/1001)
    Input #0, mov,mp4,m4a,3gp,3g2,mj2, from 'E:\ServerFolders\Videos\Canon the Barbarian\Conan_the_Barbarian_2011_1080p_BluRay_QE BS6_AAC51_PS3_MP4-FASM.mp4':
    Metadata:
    major_brand : isom
    minor_version : 1
    compatible_brands: isomavc1
    creation_time : 2011-12-17 13:45:31
    Duration: 01:52:42.83, start: 0.000000, bitrate: 3952 kb/s
    Stream #0:0(und): Video: h264 (High) (avc1 / 0x31637661), yuv420p, 1920x800 [SAR 1:1 DAR 12:5], 3537 kb/s, 23.98 fps, 23.98 tbr, 24k tbn, 47.95 tbc
    Metadata:
    creation_time : 2011-12-17 13:45:31
    handler_name : GPAC ISO Video Handler
    Stream #0:1(eng): Audio: aac (mp4a / 0x6134706D), 48000 Hz, 5.1, s16, 410 kb/s
    Metadata:
    creation_time : 2011-12-17 13:48:30
    handler_name : GPAC ISO Audio Handler
    At least one output file must be specified


    ---> DB Level Info: 40, 100
    ---> Frame rate: 23.98
    ---> Aspect ratio: 12:5

  6. #16
    Join Date
    Nov 2007
    Location
    Melbourne, Australia
    Posts
    11,616

    Default

    Thank for the FFmpeg information. Please give us a few days to tweak the device profile. We will email it to you early next week.

    Mezzmo Android: Install it on your tablet, smartphone, Android TV or Amazon Fire to browse and stream files from your Mezzmo library to all your devices. Full details at http://www.conceiva.com/products/mez...mo_android.asp
    Mezzmo for Kodi Add-on: Install it into Kodi to stream files from your Mezzmo library directly in Kodi. Full details at http://www.mezzmo.com/wiki/doku.php?...odi_user_guide
    Mezzmo for Roku App: Install it onto your Roku to stream files from your Mezzmo library. Full details at http://www.mezzmo.com/wiki/doku.php?...oku_user_guide
    Wiki: User Guides & Reference Manual at http://www.mezzmo.com/wiki
    Facebook: http://www.facebook.com/Mezzmo.DLNA.Server
    Twitter: https://twitter.com/conceiva_mezzmo
    Web: http://www.mezzmo.com

  7. #17

    Default

    Hi Paul,

    Thanks for sending me the tweaked Panasonice 2011 model profile, howerver I tried it out yesterday and still whenever I play any MKV file its try to transcode it all the time and my server couldn't transacode the files over the fly, hence its video stutter.

    Any other suggestions, I was away on holiday and came back so I would be fast in replying back to you.

  8. #18
    Join Date
    Nov 2007
    Location
    Melbourne, Australia
    Posts
    11,616

    Default

    Please enable logging in Mezzmo (see this thread: http://forum.conceiva.com/showthread...nostic-logging) then restart your Mezzmo media server. Connect to Mezzmo using your TV and then play a video file that stutters. When it starts to stutter, stop your Mezzmo media server and exit Mezzmo. Zip up all the log files and send them to us at support [at] conceiva [dot] com.

    Mezzmo Android: Install it on your tablet, smartphone, Android TV or Amazon Fire to browse and stream files from your Mezzmo library to all your devices. Full details at http://www.conceiva.com/products/mez...mo_android.asp
    Mezzmo for Kodi Add-on: Install it into Kodi to stream files from your Mezzmo library directly in Kodi. Full details at http://www.mezzmo.com/wiki/doku.php?...odi_user_guide
    Mezzmo for Roku App: Install it onto your Roku to stream files from your Mezzmo library. Full details at http://www.mezzmo.com/wiki/doku.php?...oku_user_guide
    Wiki: User Guides & Reference Manual at http://www.mezzmo.com/wiki
    Facebook: http://www.facebook.com/Mezzmo.DLNA.Server
    Twitter: https://twitter.com/conceiva_mezzmo
    Web: http://www.mezzmo.com

Similar Threads

  1. FFMPEG 100% CPU by transcoding
    By species81 in forum Mezzmo Questions and Support
    Replies: 8
    Last Post: 02-01-2012, 09:11 AM
  2. Really want to like it BUT ! ffmpeg.exe 90-100% CPU
    By cad12 in forum Mezzmo Questions and Support
    Replies: 8
    Last Post: 10-19-2011, 06:10 PM
  3. Takes two tries to get music played
    By Grundfuttock in forum Mezzmo Questions and Support
    Replies: 2
    Last Post: 06-14-2011, 06:49 PM
  4. FFMpeg Crash
    By Tony in forum Mezzmo Questions and Support
    Replies: 3
    Last Post: 11-08-2010, 09:10 AM
  5. Mezzmo server sometimes takes 10-20 mins to show up
    By RMerlin in forum Mezzmo Questions and Support
    Replies: 10
    Last Post: 04-28-2010, 06:38 AM

Tags for this Thread

Bookmarks

Posting Permissions

  • You may not post new threads
  • You may not post replies
  • You may not post attachments
  • You may not edit your posts
  •