Results 1 to 7 of 7

Thread: Mezzmo will not play dvd ripped with DVD decryptor

  1. #1
    Join Date
    Jan 2012
    Posts
    15

    Question Mezzmo will not play dvd ripped with DVD decryptor

    Hi all,
    I am trying to move my son's DVD collection over to our PC in an attempt to preserve the discs and my PS3 (only dvd player). I have tried ripping two different DVD's using DVD decryptor and Mezzmo will not play them. Both files play in windows media player, but will not play when I try to stream them to my tv (Sharp Aquos). The ffmpeg information for both files are listed below. I did notice that the duration is incorrect on both files, but like I said earlier both play fine in windows media player.

    Cars:

    ffmpeg version N-36932-gc130428 Copyright (c) 2000-2012 the FFmpeg developers
    built on Jan 19 2012 15:30:25 with gcc 4.6.2
    configuration: --enable-memalign-hack --arch=x86 --target-os=mingw32 --cross-prefix=i686-w64-mingw32- --enable-static --disable-shared --enable-zlib --disable-postproc --prefix=/media/ffmpeg --enable-libmp3lame --enable-libx264 --enable-gpl --extra-libs='-lx264 -lpthread' --enable-runtime-cpudetect --extra-cflags=-I/home/dennis/cc/include --extra-ldflags=-L/home/dennis/cc/lib --pkg-config=pkg-config --disable-w32threads
    libavutil 51. 34.101 / 51. 34.101
    libavcodec 53. 57.100 / 53. 57.100
    libavformat 53. 30.100 / 53. 30.100
    libavdevice 53. 4.100 / 53. 4.100
    libavfilter 2. 59.101 / 2. 59.101
    libswscale 2. 1.100 / 2. 1.100
    libswresample 0. 6.100 / 0. 6.100
    [mpeg @ 00029540] max_analyze_duration 5000000 reached at 5004700
    Input #0, mpeg, from 'C:\Users\JDoe\Videos\Cartoons\cars.mpg':
    Duration: 00:08:20.10, start: 0.280633, bitrate: 104034 kb/s
    Stream #0:0[0x1e0]: Video: mpeg2video (Main), yuv420p, 720x480 [SAR 32:27 DAR 16:9], 9800 kb/s, 24.58 fps, 59.94 tbr, 90k tbn, 59.94 tbc
    Stream #0:1[0x80]: Audio: ac3, 48000 Hz, 5.1(side), s16, 448 kb/s
    Stream #0:2[0x81]: Audio: ac3, 48000 Hz, stereo, s16, 192 kb/s
    At least one output file must be specified


    ---> DB Level Info: 8, 4
    ---> Frame rate: 24.58
    ---> Aspect ratio: 16:9

    Elmo's Potty Time:

    ffmpeg version N-36932-gc130428 Copyright (c) 2000-2012 the FFmpeg developers
    built on Jan 19 2012 15:30:25 with gcc 4.6.2
    configuration: --enable-memalign-hack --arch=x86 --target-os=mingw32 --cross-prefix=i686-w64-mingw32- --enable-static --disable-shared --enable-zlib --disable-postproc --prefix=/media/ffmpeg --enable-libmp3lame --enable-libx264 --enable-gpl --extra-libs='-lx264 -lpthread' --enable-runtime-cpudetect --extra-cflags=-I/home/dennis/cc/include --extra-ldflags=-L/home/dennis/cc/lib --pkg-config=pkg-config --disable-w32threads
    libavutil 51. 34.101 / 51. 34.101
    libavcodec 53. 57.100 / 53. 57.100
    libavformat 53. 30.100 / 53. 30.100
    libavdevice 53. 4.100 / 53. 4.100
    libavfilter 2. 59.101 / 2. 59.101
    libswscale 2. 1.100 / 2. 1.100
    libswresample 0. 6.100 / 0. 6.100
    [mpeg @ 00319580] max_analyze_duration 5000000 reached at 5005000
    Input #0, mpeg, from 'C:\Users\JDoe\Videos\Cartoons\Elmo_Potty_Time.mpg ':
    Duration: 00:01:28.58, start: 0.280633, bitrate: 224740 kb/s
    Stream #0:0[0x1e0]: Video: mpeg2video (Main), yuv420p, 720x480 [SAR 8:9 DAR 4:3], 9800 kb/s, 29.97 fps, 29.97 tbr, 90k tbn, 59.94 tbc
    Stream #0:1[0x80]: Audio: ac3, 48000 Hz, stereo, s16, 192 kb/s
    At least one output file must be specified


    ---> DB Level Info: 8, 4
    ---> Frame rate: 29.97
    ---> Aspect ratio: 4:3

    Please help.

    Thanks.

  2. #2
    Join Date
    Apr 2012
    Posts
    88

    Default

    Hey there

    If I can try to help you. Try ripping them to ISO with imgburn which is free. Just google it, create an ISO img and then share it across with Mezzmo. This works for me via my WDTV Live Hub, hopefully it may work for you.

    As a side note, correct me if Im wrong but DVD Decrypter only rips RAW dvd files to a folder? When I tried that method it also failed with my WDTV Live Hub. Aside from that, personally I find ISO is just a much better and neater way of storing the disk data as apposed to folders with raw disk files.

    I hope this helps you.

  3. #3
    Join Date
    Jan 2012
    Posts
    15

    Default

    Thanks. I'll give the ISO route a try.

  4. #4
    Join Date
    Jan 2012
    Posts
    15

    Default

    Ok, I've got some ISO images on my HD now, but Mezzmo will not let me add them to the library. How do I share an ISO image with Mezzmo?

  5. #5
    Join Date
    Apr 2012
    Posts
    2

    Default

    I think you'll find that it's not possible to share iso images via the DLNA protocol.
    That would be deliberate, as the big companies like Sony have issues with copies of their media. If you Google DLNA ISO you'll find quite a bit on this.

    What most people seem to do is to share a folder to the network, and then access that through one of the hardware media players like WDTV Live etc. ISO images will work fine like that.

  6. #6
    Join Date
    Nov 2007
    Location
    Melbourne, Australia
    Posts
    11,632

    Default

    Mezzmo does not stream ISO images to DLNA devices. It is a feature we may implement in a future version.

    With regards the original poster's problem, please go to the Media Devices dialog in Mezzmo and make sure your TV is using the "Sharp Aquos (2011 models)" device profile. There are also a few other Sharp Aquos device profiles, so you can try them also. Each time, restart your Mezzmo server and try streaming your files to your TV. See if that helps. If no success, contact us at support [at] conceiva [dot] com and we do have an updated Sharp Aquos device profile that may help further.

    Mezzmo Android: Install it on your tablet, smartphone, Android TV or Amazon Fire to browse and stream files from your Mezzmo library to all your devices. Full details at http://www.conceiva.com/products/mez...mo_android.asp
    Mezzmo for Kodi Add-on: Install it into Kodi to stream files from your Mezzmo library directly in Kodi. Full details at http://www.mezzmo.com/wiki/doku.php?...odi_user_guide
    Mezzmo for Roku App: Install it onto your Roku to stream files from your Mezzmo library. Full details at http://www.mezzmo.com/wiki/doku.php?...oku_user_guide
    Wiki: User Guides & Reference Manual at http://www.mezzmo.com/wiki
    Facebook: http://www.facebook.com/Mezzmo.DLNA.Server
    Twitter: https://twitter.com/conceiva_mezzmo
    Web: http://www.mezzmo.com

  7. #7
    Join Date
    Apr 2012
    Posts
    88

    Default

    Sorry I should have been clearer here. The ISO image solution was what I used with WDTV Live Hub directly through the network via the FILES feature of the box and not through Mezzmo. I use Mezzmo with everything else, Im not sure if the ps3 supports ISO image, but there may be another way to get it working via this method.

    Apologies for not being clearer.
    Hashy

Similar Threads

  1. Ripped DVDs - .VOB
    By bartman in forum Mezzmo Questions and Support
    Replies: 18
    Last Post: 12-31-2011, 03:37 AM
  2. Can Mezzmo play Fuji 3D W3 video in 3D?
    By molan in forum Mezzmo Questions and Support
    Replies: 1
    Last Post: 08-11-2011, 07:49 PM
  3. Unable to play MKV in Mezzmo UI
    By bbear in forum Mezzmo Questions and Support
    Replies: 2
    Last Post: 01-27-2011, 02:32 PM
  4. Evaluating Mezzmo - Won't play avi movie
    By harry_fine in forum Mezzmo Questions and Support
    Replies: 15
    Last Post: 12-09-2010, 08:57 AM
  5. Mezzmo media player will not play MP3 it has ripped from CD
    By gjbth in forum Mezzmo Questions and Support
    Replies: 2
    Last Post: 04-19-2010, 11:59 PM

Tags for this Thread

Bookmarks

Posting Permissions

  • You may not post new threads
  • You may not post replies
  • You may not post attachments
  • You may not edit your posts
  •