Results 1 to 2 of 2

Thread: iPhone movies play upside down

  1. #1
    Join Date
    May 2012
    Posts
    1

    Default iPhone movies play upside down

    When I play the movies using quicktime, they play the correct way up. I guess there must be a flag in the file that tells quicktime which way up I held the camera. In Mezzmo they do not automatically rotate.

    Is there a way of telling Mezzmo to rate the videos?

    Thanks (Currently using 2.5.0.0 in tral mode)

    ffmpeg version N-36036-ga40f43d, Copyright (c) 2000-2011 the FFmpeg developers
    built on Dec 22 2011 13:44:49 with gcc 4.6.2
    configuration: --enable-memalign-hack --arch=x86 --target-os=mingw32 --cross-prefix=i686-w64-mingw32- --enable-static --disable-shared --enable-zlib --disable-postproc --prefix=/media/ffmpeg --enable-libmp3lame --enable-libx264 --enable-gpl --extra-libs='-lx264 -lpthread' --enable-runtime-cpudetect --extra-cflags=-I/home/dennis/cc/include --extra-ldflags=-L/home/dennis/cc/lib --pkg-config=pkg-config --disable-w32threads
    libavutil 51. 32. 0 / 51. 32. 0
    libavcodec 53. 46. 1 / 53. 46. 1
    libavformat 53. 27. 0 / 53. 27. 0
    libavdevice 53. 4. 0 / 53. 4. 0
    libavfilter 2. 53. 0 / 2. 53. 0
    libswscale 2. 1. 0 / 2. 1. 0

    Seems stream 0 codec frame rate differs from container frame rate: 1200.00 (1200/1) -> 29.97 (30000/1001)
    Input #0, mov,mp4,m4a,3gp,3g2,mj2, from 'F:\My Videos\IMG_0393.MOV':
    Metadata:
    major_brand : qt
    minor_version : 0
    compatible_brands: qt
    creation_time : 2012-03-30 10:14:43
    encoder : 5.1
    encoder-eng : 5.1
    date : 2012-03-30T11:14:43+0100
    date-eng : 2012-03-30T11:14:43+0100
    Duration: 00:00:34.34, start: 0.000023, bitrate: 21764 kb/s
    Stream #0:0(und): Video: h264 (Baseline) (avc1 / 0x31637661), yuv420p, 1920x1080, 21697 kb/s, 29.97 fps, 29.97 tbr, 600 tbn, 1200 tbc
    Metadata:
    rotate : 180
    creation_time : 2012-03-30 10:14:43
    handler_name :
    Stream #0:1(und): Audio: aac (mp4a / 0x6134706D), 44100 Hz, mono, s16, 62 kb/s
    Metadata:
    creation_time : 2012-03-30 10:14:43
    handler_name :
    At least one output file must be specified


    ---> DB Level Info: 41, 66
    ---> Frame rate: 29.97
    ---> Aspect ratio:

  2. #2
    Join Date
    Nov 2007
    Location
    Melbourne, Australia
    Posts
    11,616

    Default

    Thanks for reporting this. I can see the "rotate : 180" meta data in your MOV file, but it seems your DLNA device is not respecting it and just playing it without rotating it. What DLNA device (including model number) are you streaming to? And, what device profile are you using for this device in Mezzmo? Go to the Media Devices dialog in Mezzmo to check the device profile.

    Mezzmo Android: Install it on your tablet, smartphone, Android TV or Amazon Fire to browse and stream files from your Mezzmo library to all your devices. Full details at http://www.conceiva.com/products/mez...mo_android.asp
    Mezzmo for Kodi Add-on: Install it into Kodi to stream files from your Mezzmo library directly in Kodi. Full details at http://www.mezzmo.com/wiki/doku.php?...odi_user_guide
    Mezzmo for Roku App: Install it onto your Roku to stream files from your Mezzmo library. Full details at http://www.mezzmo.com/wiki/doku.php?...oku_user_guide
    Wiki: User Guides & Reference Manual at http://www.mezzmo.com/wiki
    Facebook: http://www.facebook.com/Mezzmo.DLNA.Server
    Twitter: https://twitter.com/conceiva_mezzmo
    Web: http://www.mezzmo.com

Similar Threads

  1. Profile for iPad 2 and iPhone 4
    By mathieuy in forum Mezzmo Questions and Support
    Replies: 8
    Last Post: 09-20-2013, 09:50 AM
  2. Replies: 7
    Last Post: 01-11-2012, 09:50 AM
  3. Transcoding for the iPhone
    By TVsoundguy in forum Mezzmo Questions and Support
    Replies: 4
    Last Post: 07-15-2011, 10:41 AM
  4. Anyone using their iPhone with Mezzmo?
    By petar in forum Mezzmo Questions and Support
    Replies: 1
    Last Post: 09-17-2010, 01:19 PM
  5. Some movies still don't play. I thought they were encoded on the fly?
    By Manny in forum Mezzmo Questions and Support
    Replies: 3
    Last Post: 08-02-2010, 09:47 AM

Tags for this Thread

Bookmarks

Posting Permissions

  • You may not post new threads
  • You may not post replies
  • You may not post attachments
  • You may not edit your posts
  •