Results 1 to 6 of 6

Thread: DCA (DTS Coherent Acoustics) codec with samsung d6500

  1. #1
    Join Date
    May 2012
    Posts
    16

    Default DCA (DTS Coherent Acoustics) codec with samsung d6500

    i have two different mkv movies that have the audio codec DCA. why does one play without transcoding but the other transcodes. if there the same why is one not supported.

  2. #2
    Join Date
    Nov 2007
    Location
    Melbourne, Australia
    Posts
    11,616

    Default

    Please post the FFmpeg information for both files and that may help us understand why. To do this, right-click on the file in Mezzmo and click 'Get FFmpeg Information'. Also, let us know the device profile that is assigned to your TV. Go to the Media Devices dialog in Mezzmo to see this.

    Mezzmo Android: Install it on your tablet, smartphone, Android TV or Amazon Fire to browse and stream files from your Mezzmo library to all your devices. Full details at http://www.conceiva.com/products/mez...mo_android.asp
    Mezzmo for Kodi Add-on: Install it into Kodi to stream files from your Mezzmo library directly in Kodi. Full details at http://www.mezzmo.com/wiki/doku.php?...odi_user_guide
    Mezzmo for Roku App: Install it onto your Roku to stream files from your Mezzmo library. Full details at http://www.mezzmo.com/wiki/doku.php?...oku_user_guide
    Wiki: User Guides & Reference Manual at http://www.mezzmo.com/wiki
    Facebook: http://www.facebook.com/Mezzmo.DLNA.Server
    Twitter: https://twitter.com/conceiva_mezzmo
    Web: http://www.mezzmo.com

  3. #3
    Join Date
    May 2012
    Posts
    16

    Default

    Quote Originally Posted by Paul View Post
    Please post the FFmpeg information for both files and that may help us understand why. To do this, right-click on the file in Mezzmo and click 'Get FFmpeg Information'. Also, let us know the device profile that is assigned to your TV. Go to the Media Devices dialog in Mezzmo to see this.
    this file transcodes and if i try to play it without transcoding it will play for 10 secs and then the audio gets out of sync

    ffmpeg version N-40693-gc457a29 Copyright (c) 2000-2012 the FFmpeg developers
    built on May 15 2012 12:57:14 with gcc 4.6.2
    configuration: --enable-memalign-hack --arch=x86 --target-os=mingw32 --cross-prefix=i686-w64-mingw32- --enable-static --disable-shared --enable-zlib --disable-postproc --prefix=/home/peter/ffmpeg/build/gpl --enable-libmp3lame --enable-libx264 --enable-gpl --extra-libs='-lx264 -lpthread' --enable-runtime-cpudetect --extra-cflags=-I/home/peter/cc/include --extra-ldflags=-L/home/peter/cc/lib --pkg-config=pkg-config --disable-w32threads
    libavutil 51. 51.100 / 51. 51.100
    libavcodec 54. 21.101 / 54. 21.101
    libavformat 54. 5.100 / 54. 5.100
    libavdevice 53. 4.100 / 53. 4.100
    libavfilter 2. 73.100 / 2. 73.100
    libswscale 2. 1.100 / 2. 1.100
    libswresample 0. 11.100 / 0. 11.100
    Input #0, matroska,webm, from 'G:\Spiderman.2002.1080p.Bluray.x264-hV\spiderman.2002.1080p.bluray.x264-hv.mkv':
    Metadata:
    creation_time : 2007-11-01 18:45:01
    Duration: 02:01:12.22, start: 0.000000, bitrate: 11968 kb/s
    Stream #0:0(eng): Video: h264 (High), yuv420p, 1920x1040, SAR 255:254 DAR 3060:1651, 23.98 fps, 23.98 tbr, 1k tbn, 47.95 tbc (default)
    Stream #0:1(eng): Audio: dts (DTS), 48000 Hz, 5.1(side), s16, 1536 kb/s (default)
    At least one output file must be specified


    ---> DB Level Info: 51, 100
    ---> Frame rate: 23.98
    ---> Aspect ratio: 3060:1651

    this file plays fine

    ffmpeg version N-40693-gc457a29 Copyright (c) 2000-2012 the FFmpeg developers
    built on May 15 2012 12:57:14 with gcc 4.6.2
    configuration: --enable-memalign-hack --arch=x86 --target-os=mingw32 --cross-prefix=i686-w64-mingw32- --enable-static --disable-shared --enable-zlib --disable-postproc --prefix=/home/peter/ffmpeg/build/gpl --enable-libmp3lame --enable-libx264 --enable-gpl --extra-libs='-lx264 -lpthread' --enable-runtime-cpudetect --extra-cflags=-I/home/peter/cc/include --extra-ldflags=-L/home/peter/cc/lib --pkg-config=pkg-config --disable-w32threads
    libavutil 51. 51.100 / 51. 51.100
    libavcodec 54. 21.101 / 54. 21.101
    libavformat 54. 5.100 / 54. 5.100
    libavdevice 53. 4.100 / 53. 4.100
    libavfilter 2. 73.100 / 2. 73.100
    libswscale 2. 1.100 / 2. 1.100
    libswresample 0. 11.100 / 0. 11.100
    Input #0, matroska,webm, from 'E:\Wanderlust.720p.BluRay.X264-BLOW.mkv':
    Metadata:
    creation_time : 2012-06-07 01:03:24
    Duration: 01:38:06.93, start: 0.000000, bitrate: 6375 kb/s
    Stream #0:0(eng): Video: h264 (High), yuv420p, 1280x688, SAR 1:1 DAR 80:43, 23.98 fps, 23.98 tbr, 1k tbn, 47.95 tbc (default)
    Stream #0:1: Audio: dts (DTS), 48000 Hz, 5.1(side), s16, 1536 kb/s (default)
    At least one output file must be specified


    ---> DB Level Info: 41, 100
    ---> Frame rate: 23.98
    ---> Aspect ratio: 80:43

    im playing this on samsung blu ray bd-d6500 with the bdp 3d profile
    Last edited by troyb1; 06-15-2012 at 05:28 AM.

  4. #4
    Join Date
    Nov 2007
    Location
    Melbourne, Australia
    Posts
    11,616

    Default

    Please try this: In Mezzmo, go to the Media Devices dialog and edit your Samsung device listed there. In the Device Settings dialog, go to the Transcoding tab and turn off transcoding. Also on the Transcoding tab, delete all transcoded files for your device. Now, try streaming the two MKVs again to your Samsung BDP. Do they both play now? If they do, then contact us at support [at] conceiva [dot] com and we'll supply you with an updated device profile to try.

    Mezzmo Android: Install it on your tablet, smartphone, Android TV or Amazon Fire to browse and stream files from your Mezzmo library to all your devices. Full details at http://www.conceiva.com/products/mez...mo_android.asp
    Mezzmo for Kodi Add-on: Install it into Kodi to stream files from your Mezzmo library directly in Kodi. Full details at http://www.mezzmo.com/wiki/doku.php?...odi_user_guide
    Mezzmo for Roku App: Install it onto your Roku to stream files from your Mezzmo library. Full details at http://www.mezzmo.com/wiki/doku.php?...oku_user_guide
    Wiki: User Guides & Reference Manual at http://www.mezzmo.com/wiki
    Facebook: http://www.facebook.com/Mezzmo.DLNA.Server
    Twitter: https://twitter.com/conceiva_mezzmo
    Web: http://www.mezzmo.com

  5. #5
    Join Date
    May 2012
    Posts
    16

    Default

    that seems to have fixed it. thanks Paul. I will email support

  6. #6
    Join Date
    Nov 2007
    Location
    Melbourne, Australia
    Posts
    11,616

    Default

    Thanks for the feedback. I have emailed you an updated device profile to try. Remember to turn transcoding back on before you test it. Let us know how it goes.

    Mezzmo Android: Install it on your tablet, smartphone, Android TV or Amazon Fire to browse and stream files from your Mezzmo library to all your devices. Full details at http://www.conceiva.com/products/mez...mo_android.asp
    Mezzmo for Kodi Add-on: Install it into Kodi to stream files from your Mezzmo library directly in Kodi. Full details at http://www.mezzmo.com/wiki/doku.php?...odi_user_guide
    Mezzmo for Roku App: Install it onto your Roku to stream files from your Mezzmo library. Full details at http://www.mezzmo.com/wiki/doku.php?...oku_user_guide
    Wiki: User Guides & Reference Manual at http://www.mezzmo.com/wiki
    Facebook: http://www.facebook.com/Mezzmo.DLNA.Server
    Twitter: https://twitter.com/conceiva_mezzmo
    Web: http://www.mezzmo.com

Similar Threads

  1. Codec not supported on Samsung LE40C650
    By Pewima in forum Mezzmo Questions and Support
    Replies: 3
    Last Post: 04-26-2012, 10:30 AM
  2. Samsung BD-D6500 and Request cannot be completed
    By Chucky5150 in forum Mezzmo Questions and Support
    Replies: 7
    Last Post: 03-27-2012, 06:41 AM
  3. Samsung BD-D5300 video codec not supported
    By ant-dat in forum Mezzmo Questions and Support
    Replies: 3
    Last Post: 03-12-2012, 09:15 PM
  4. Samsung BD-D6500
    By Insider in forum Mezzmo Questions and Support
    Replies: 3
    Last Post: 01-09-2012, 09:57 AM
  5. HELP Samsung DB-D6500
    By xboxboy73 in forum Mezzmo Questions and Support
    Replies: 3
    Last Post: 12-19-2011, 08:58 AM

Tags for this Thread

Bookmarks

Posting Permissions

  • You may not post new threads
  • You may not post replies
  • You may not post attachments
  • You may not edit your posts
  •