Results 1 to 3 of 3

Thread: Is clean install possible, adding a deleted device

  1. #1

    Default Is clean install possible, adding a deleted device

    Hello,

    Using Mezzmo 2.6.3 on my Intel I5 machine, with my Panasonic Viera 2010 model, with the Viera profile.

    My Mezzmo started acting up lately, giving me a lot of "file not supported" on files that used to work fine. So i decided to uninstall, and reinstal again, in hope of getting a clean install.

    But after the reinstall, everything was as is. All the settings, folder etc. in place. So, i tried deleting my Panasonic Viera TV from the "Devices" dialog for re-adding it, as a workaround, and that's simply not possible. The TV is now nowhere to be seen. Restated Mezzmo, the server, th TV etc. The device is not seen in Mezzmo, and if i try to connect to the Mezzmo server from my TV, i get the message "unable to connect". So:

    1. How do i readd my device in Mezzmo ?
    2. How do i do aclean install (where EVERYTHING is deleted, profiles, settings, etc.)

    TIA.
    Last edited by kraksen; 06-17-2012 at 05:31 AM.

  2. #2

    Default

    The readd device problem solved. Suddenly my device was visible again. Still interested in the clean install method though..

    BTW, getting "file not supported" on this one.

    To me, seem to be a normal xvid encoded file, that should be supported on my TV natively:

    ffmpeg version N-40693-gc457a29 Copyright (c) 2000-2012 the FFmpeg developers
    built on May 15 2012 12:57:14 with gcc 4.6.2
    configuration: --enable-memalign-hack --arch=x86 --target-os=mingw32 --cross-prefix=i686-w64-mingw32- --enable-static --disable-shared --enable-zlib --disable-postproc --prefix=/home/peter/ffmpeg/build/gpl --enable-libmp3lame --enable-libx264 --enable-gpl --extra-libs='-lx264 -lpthread' --enable-runtime-cpudetect --extra-cflags=-I/home/peter/cc/include --extra-ldflags=-L/home/peter/cc/lib --pkg-config=pkg-config --disable-w32threads
    libavutil 51. 51.100 / 51. 51.100
    libavcodec 54. 21.101 / 54. 21.101
    libavformat 54. 5.100 / 54. 5.100
    libavdevice 53. 4.100 / 53. 4.100
    libavfilter 2. 73.100 / 2. 73.100
    libswscale 2. 1.100 / 2. 1.100
    libswresample 0. 11.100 / 0. 11.100
    Input #0, avi, from 'C:\xxx':
    Metadata:
    encoder : VirtualDubMod 1.5.10.2 (build 2540/release)
    Duration: 01:39:39.22, start: 0.000000, bitrate: 981 kb/s
    Stream #0:0: Video: mpeg4 (Advanced Simple Profile) (XVID / 0x44495658), yuv420p, 608x336 [SAR 1:1 DAR 38:21], 23.98 tbr, 23.98 tbn, 23.98 tbc
    Stream #0:1: Audio: mp3 (U[0][0][0] / 0x0055), 48000 Hz, stereo, s16, 32 kb/s
    At least one output file must be specified

    This one, with the exact same specifications plays fine natively:

    ffmpeg version N-40693-gc457a29 Copyright (c) 2000-2012 the FFmpeg developers
    built on May 15 2012 12:57:14 with gcc 4.6.2
    configuration: --enable-memalign-hack --arch=x86 --target-os=mingw32 --cross-prefix=i686-w64-mingw32- --enable-static --disable-shared --enable-zlib --disable-postproc --prefix=/home/peter/ffmpeg/build/gpl --enable-libmp3lame --enable-libx264 --enable-gpl --extra-libs='-lx264 -lpthread' --enable-runtime-cpudetect --extra-cflags=-I/home/peter/cc/include --extra-ldflags=-L/home/peter/cc/lib --pkg-config=pkg-config --disable-w32threads
    libavutil 51. 51.100 / 51. 51.100
    libavcodec 54. 21.101 / 54. 21.101
    libavformat 54. 5.100 / 54. 5.100
    libavdevice 53. 4.100 / 53. 4.100
    libavfilter 2. 73.100 / 2. 73.100
    libswscale 2. 1.100 / 2. 1.100
    libswresample 0. 11.100 / 0. 11.100
    [mpeg4 @ 0191c980] Invalid and inefficient vfw-avi packed B frames detected
    Input #0, avi, from 'C:\xxx':
    Duration: 01:32:10.52, start: 0.000000, bitrate: 1065 kb/s
    Stream #0:0: Video: mpeg4 (Advanced Simple Profile) (XVID / 0x44495658), yuv420p, 672x384 [SAR 1:1 DAR 7:4], 23.98 tbr, 23.98 tbn, 23.98 tbc
    Stream #0:1: Audio: mp3 (U[0][0][0] / 0x0055), 48000 Hz, stereo, s16, 128 kb/s
    At least one output file must be specified


    ---> DB Level Info: 5, 15
    ---> Frame rate: 23,98
    ---> Aspect ratio: 7:4
    Last edited by kraksen; 06-17-2012 at 05:54 AM.

  3. #3
    Join Date
    Nov 2007
    Location
    Melbourne, Australia
    Posts
    11,616

    Default

    When you uninstall Mezzmo and uncheck the 'Keep my Mezzmo library' checkbox in the uninstaller, then all traces of Mezzmo should be removed from your computer.

    With regards the AVI playback problems, please send us as set of logs so we can determine what may be the problem. Please enable logging (see http://forum.conceiva.com/showthread...nostic-logging) and restart your Mezzmo server. Stream the video file that works to your TV. When it starts playing properly, then stop playing it and then play the video file that does not work. When it fails to play, stop your Mezzmo server and exit Mezzmo. Zip up all the logs and send them to us at support [at] conceiva [dot] com.

    Mezzmo Android: Install it on your tablet, smartphone, Android TV or Amazon Fire to browse and stream files from your Mezzmo library to all your devices. Full details at http://www.conceiva.com/products/mez...mo_android.asp
    Mezzmo for Kodi Add-on: Install it into Kodi to stream files from your Mezzmo library directly in Kodi. Full details at http://www.mezzmo.com/wiki/doku.php?...odi_user_guide
    Mezzmo for Roku App: Install it onto your Roku to stream files from your Mezzmo library. Full details at http://www.mezzmo.com/wiki/doku.php?...oku_user_guide
    Wiki: User Guides & Reference Manual at http://www.mezzmo.com/wiki
    Facebook: http://www.facebook.com/Mezzmo.DLNA.Server
    Twitter: https://twitter.com/conceiva_mezzmo
    Web: http://www.mezzmo.com

Similar Threads

  1. Adding an admin interface
    By xnicolovici in forum Mezzmo Wish List and Feedback
    Replies: 8
    Last Post: 08-18-2012, 12:52 PM
  2. Mezzmo Video Meta data wiped clean
    By cmechlin in forum Mezzmo Questions and Support
    Replies: 1
    Last Post: 04-20-2012, 10:47 AM
  3. Adding New Files
    By Jigsaw27 in forum Mezzmo Questions and Support
    Replies: 1
    Last Post: 01-03-2012, 11:57 AM
  4. when are transcoded files deleted/why aren't trans files deleted when source is
    By bsantelli in forum Mezzmo Questions and Support
    Replies: 3
    Last Post: 12-06-2011, 10:18 AM
  5. Adding Video Art in batches
    By Finchy70 in forum Mezzmo Questions and Support
    Replies: 1
    Last Post: 09-04-2011, 02:32 AM

Tags for this Thread

Bookmarks

Posting Permissions

  • You may not post new threads
  • You may not post replies
  • You may not post attachments
  • You may not edit your posts
  •