Results 1 to 6 of 6

Thread: samsung d series smart tv codec not supported

  1. #1
    Join Date
    May 2012
    Posts
    16

    Default samsung d series smart tv codec not supported

    im getting a video codec not supported using the samsung d profile. the codec is the same as all the other videos that run fine. thanks for your help!

    ffmpeg version N-40693-gc457a29 Copyright (c) 2000-2012 the FFmpeg developers
    built on May 15 2012 12:57:14 with gcc 4.6.2
    configuration: --enable-memalign-hack --arch=x86 --target-os=mingw32 --cross-prefix=i686-w64-mingw32- --enable-static --disable-shared --enable-zlib --disable-postproc --prefix=/home/peter/ffmpeg/build/gpl --enable-libmp3lame --enable-libx264 --enable-gpl --extra-libs='-lx264 -lpthread' --enable-runtime-cpudetect --extra-cflags=-I/home/peter/cc/include --extra-ldflags=-L/home/peter/cc/lib --pkg-config=pkg-config --disable-w32threads
    libavutil 51. 51.100 / 51. 51.100
    libavcodec 54. 21.101 / 54. 21.101
    libavformat 54. 5.100 / 54. 5.100
    libavdevice 53. 4.100 / 53. 4.100
    libavfilter 2. 73.100 / 2. 73.100
    libswscale 2. 1.100 / 2. 1.100
    libswresample 0. 11.100 / 0. 11.100
    Input #0, matroska,webm, from 'H:\Meet.The.Robinsons.2007.1080p.BluRay.DTS.x264-hV\Meet.The.Robinsons.2007.1080p.BluRay.DTS.x264-hV.mkv':
    Metadata:
    creation_time : 2007-11-26 22:25:33
    Duration: 01:33:40.86, start: 0.000000, bitrate: 10028 kb/s
    Stream #0:0(eng): Audio: dts (DTS), 48000 Hz, 5.1(side), s16, 1536 kb/s (default)
    Stream #0:1(eng): Video: h264 (High), yuv420p, 1920x1080, SAR 1:1 DAR 16:9, 23.98 fps, 23.98 tbr, 1k tbn, 47.95 tbc (default)
    At least one output file must be specified


    ---> DB Level Info: 51, 100
    ---> Frame rate: 23.98
    ---> Aspect ratio: 16:9

  2. #2
    Join Date
    Jul 2010
    Location
    California, USA
    Posts
    195

    Default

    It would help if you could post one from a working file for comparison. The only thing that grabbed my eye was the webm.

  3. #3
    Join Date
    May 2012
    Posts
    16

    Default

    Quote Originally Posted by JohnM View Post
    It would help if you could post one from a working file for comparison. The only thing that grabbed my eye was the webm.
    heres a working one, same video and audio codec thanks John!

    ffmpeg version N-40693-gc457a29 Copyright (c) 2000-2012 the FFmpeg developers
    built on May 15 2012 12:57:14 with gcc 4.6.2
    configuration: --enable-memalign-hack --arch=x86 --target-os=mingw32 --cross-prefix=i686-w64-mingw32- --enable-static --disable-shared --enable-zlib --disable-postproc --prefix=/home/peter/ffmpeg/build/gpl --enable-libmp3lame --enable-libx264 --enable-gpl --extra-libs='-lx264 -lpthread' --enable-runtime-cpudetect --extra-cflags=-I/home/peter/cc/include --extra-ldflags=-L/home/peter/cc/lib --pkg-config=pkg-config --disable-w32threads
    libavutil 51. 51.100 / 51. 51.100
    libavcodec 54. 21.101 / 54. 21.101
    libavformat 54. 5.100 / 54. 5.100
    libavdevice 53. 4.100 / 53. 4.100
    libavfilter 2. 73.100 / 2. 73.100
    libswscale 2. 1.100 / 2. 1.100
    libswresample 0. 11.100 / 0. 11.100
    Input #0, matroska,webm, from 'H:\American.Reunion.UNRATED.1080p.BluRay.X264-BLOW\American.Reunion.UNRATED.1080p.BluRay.X264-BLOW.mkv':
    Metadata:
    creation_time : 2012-06-28 05:21:26
    Duration: 01:53:51.49, start: 0.000000, bitrate: 9617 kb/s
    Stream #0:0(eng): Video: h264 (High), yuv420p, 1920x1040, SAR 1:1 DAR 24:13, 23.98 fps, 23.98 tbr, 1k tbn, 47.95 tbc (default)
    Stream #0:1: Audio: dts (DTS), 48000 Hz, 5.1(side), s16, 1536 kb/s (default)
    At least one output file must be specified


    ---> DB Level Info: 41, 100
    ---> Frame rate: 23.98
    ---> Aspect ratio: 24:13

  4. #4
    Join Date
    Jul 2010
    Location
    California, USA
    Posts
    195

    Default

    The two obvious differences (other than stream ids) is that the working file is at a different video resolution 1920x1040 versus the 1920x1080 for the one that fails. I doubt that is the problem if your tv can show 1080p resolution. The most likely is that the bit rate is higher for the failing file (10028kbps vs 9617kbps) and may exceed the capabilities of your system.

  5. #5
    Join Date
    May 2012
    Posts
    16

    Default

    Quote Originally Posted by JohnM View Post
    The two obvious differences (other than stream ids) is that the working file is at a different video resolution 1920x1040 versus the 1920x1080 for the one that fails. I doubt that is the problem if your tv can show 1080p resolution. The most likely is that the bit rate is higher for the failing file (10028kbps vs 9617kbps) and may exceed the capabilities of your system.
    thanks for checking

  6. #6
    Join Date
    Nov 2007
    Location
    Melbourne, Australia
    Posts
    11,616

    Default

    If you send us an email to support [at] conceiva [dot] com, we can send you a modified Samsung D device profile for you to try. This will transcode the (failing) file so that is does play.

    Mezzmo Android: Install it on your tablet, smartphone, Android TV or Amazon Fire to browse and stream files from your Mezzmo library to all your devices. Full details at http://www.conceiva.com/products/mez...mo_android.asp
    Mezzmo for Kodi Add-on: Install it into Kodi to stream files from your Mezzmo library directly in Kodi. Full details at http://www.mezzmo.com/wiki/doku.php?...odi_user_guide
    Mezzmo for Roku App: Install it onto your Roku to stream files from your Mezzmo library. Full details at http://www.mezzmo.com/wiki/doku.php?...oku_user_guide
    Wiki: User Guides & Reference Manual at http://www.mezzmo.com/wiki
    Facebook: http://www.facebook.com/Mezzmo.DLNA.Server
    Twitter: https://twitter.com/conceiva_mezzmo
    Web: http://www.mezzmo.com

Similar Threads

  1. Help with Samsung 5E series Smart TV
    By iggycombes in forum Mezzmo Questions and Support
    Replies: 5
    Last Post: 07-16-2012, 12:23 PM
  2. DCA (DTS Coherent Acoustics) codec with samsung d6500
    By troyb1 in forum Mezzmo Questions and Support
    Replies: 5
    Last Post: 06-15-2012, 04:33 PM
  3. Codec not supported on Samsung LE40C650
    By Pewima in forum Mezzmo Questions and Support
    Replies: 3
    Last Post: 04-26-2012, 11:30 AM
  4. Samsung BD-D5300 video codec not supported
    By ant-dat in forum Mezzmo Questions and Support
    Replies: 3
    Last Post: 03-12-2012, 10:15 PM
  5. MKV with samsung C8000 Series...
    By theother1wstolen in forum Mezzmo Questions and Support
    Replies: 14
    Last Post: 03-23-2011, 02:02 PM

Tags for this Thread

Bookmarks

Posting Permissions

  • You may not post new threads
  • You may not post replies
  • You may not post attachments
  • You may not edit your posts
  •