Results 1 to 2 of 2

Thread: Sony Product profile issues - BDP 570, SMP-N100

  1. #1

    Default Sony Product profile issues - BDP 570, SMP-N100

    I have a BDP-S570 BluRay player and an SMP-N100. I have tried a few different stock profiles and have had issues with files that are supported through the devices but do not play. I'm currently on 2.6.4 and for the most parts the profiles are working pretty well. I have noticed some issues though.

    For the BDP-S570 i have tried these profiles and they all seem to have similar issue with some sort of source format when trying to convert to MPEG-TS h.264 stream. Not all files fail, only certain ones, but when they fail they have this exact issue.

    Sony BDP (NTSC, No Divx)
    Sony BDP, HT, SMP (the new profile)
    I even tried a self created version of the first one, with some tweaks, to get MP4 files and a few others working under 2.6.3 (this has similar error issue).

    This error appears to be most common error for me (for files that i know have worked in the past but now don't)

    frame= 720 fps=0.0 q=-1.0 size= 36061kB time=00:00:29.58 bitrate=9983.7kbits/s
    frame= 1376 fps=1370 q=-1.0 size= 69566kB time=00:00:57.02 bitrate=9993.8kbits/s
    frame= 1860 fps=1234 q=-1.0 size= 94035kB time=00:01:17.03 bitrate=9999.9kbits/s
    frame= 2864 fps=1427 q=-1.0 size= 145288kB time=00:01:59.04 bitrate=9998.3kbits/s
    frame= 3369 fps=1344 q=-1.0 size= 170961kB time=00:02:20.05 bitrate=9999.8kbits/s
    frame= 4047 fps=1345 q=-1.0 size= 205781kB time=00:02:48.57 bitrate=10000.0kbits/s
    Failed to open bitstream filter h264_mp4toannexb for stream 0 with codec copy: Invalid argument
    Failed to open bitstream filter h264_mp4toannexb for stream 0 with codec copy: Invalid argument
    [mpegts @ 026df1a0] H.264 bitstream malformed, no startcode found, use the h264_mp4toannexb bitstream filter (-bsf h264_mp4toannexb)
    av_interleaved_write_frame(): Invalid data found when processing input

    <MEZZMO>: Child process ended with code: 109


    Full transcode log output:

    C:\Program Files (x86)\Conceiva\Mezzmo\ffmpeg.exe -i "M:\TVSeries\File.m4v" -y -c:v copy -muxrate 10000000 -level 40 -profile:v main -filter:v "yadif" -c:a copy -sn -f mpegts -threads 0 -async 0 -pix_fmt yuv420p -copyinkf -coder 1 -flags +loop -cmp +chroma -me_method epzs -subq 7 -me_range 16 -g 25 -keyint_min 25 -sc_threshold 40 -b_strategy 1 -x264opts direct-pred=auto:b-pyramid=normal:mixed-refs=1:weightb=1:8x8dct=1:fast-pskip=1:crf=22:ref=2:bframes=3 -partitions -parti8x8-parti4x4-partp8x8-partp4x4-partb8x8 -bidir_refine 1 -bsf h264_mp4toannexb -strict experimental "H:\Mezzmo\TranscodedFiles\063B103E-41D5-43bc-BAFF-2BB5097D5B3C\Video\25982-mpegts_transcoding-libx264-aac.mzt"

    ffmpeg version N-40693-gc457a29 Copyright (c) 2000-2012 the FFmpeg developers
    built on May 15 2012 12:57:14 with gcc 4.6.2
    configuration: --enable-memalign-hack --arch=x86 --target-os=mingw32 --cross-prefix=i686-w64-mingw32- --enable-static --disable-shared --enable-zlib --disable-postproc --prefix=/home/peter/ffmpeg/build/gpl --enable-libmp3lame --enable-libx264 --enable-gpl --extra-libs='-lx264 -lpthread' --enable-runtime-cpudetect --extra-cflags=-I/home/peter/cc/include --extra-ldflags=-L/home/peter/cc/lib --pkg-config=pkg-config --disable-w32threads
    libavutil 51. 51.100 / 51. 51.100
    libavcodec 54. 21.101 / 54. 21.101
    libavformat 54. 5.100 / 54. 5.100
    libavdevice 53. 4.100 / 53. 4.100
    libavfilter 2. 73.100 / 2. 73.100
    libswscale 2. 1.100 / 2. 1.100
    libswresample 0. 11.100 / 0. 11.100
    [h264 @ 01a606c0] Increasing reorder buffer to 1
    Input #0, mov,mp4,m4a,3gp,3g2,mj2, from 'M:\TVSeries\File.m4v':
    Metadata:
    major_brand : M4V
    minor_version : 0
    compatible_brands: M4V mp42isom
    creation_time : 2012-02-18 14:05:03
    title :
    artist :
    album_artist :
    album :
    genre : Drama
    track : 19
    disc : 1/1
    gapless_playback: 0
    date : 2012-02-26T08:00:00Z
    copyright :
    description :
    hd_video : 1
    network :
    show :
    episode_id : 210
    season_number : 2
    episode_sort : 19
    media_type : 10
    synopsis :
    Duration: 00:42:32.26, start: 0.000000, bitrate: 4182 kb/s
    Stream #0:0(eng): Audio: aac (mp4a / 0x6134706D), 48000 Hz, stereo, s16, 126 kb/s
    Metadata:
    creation_time : 2012-02-18 14:05:03
    handler_name : Apple Sound Media Handler
    Stream #0:1(eng): Video: h264 (High) (avc1 / 0x31637661), yuv420p, 1280x720 [SAR 1:1 DAR 16:9], 4046 kb/s, 23.98 fps, 23.98 tbr, 2997 tbn, 5994 tbc
    Metadata:
    creation_time : 2012-02-18 14:05:03
    handler_name : Apple Video Media Handler
    Stream #0:2(eng): Subtitle: eia_608 (c608 / 0x38303663)
    Metadata:
    creation_time : 2012-02-18 14:05:03
    handler_name : Apple Closed Caption Media Handler
    [mpegts @ 026df1a0] muxrate 10000000, pcr every 132 pkts, sdt every 3324, pat/pmt every 664 pkts
    Output #0, mpegts, to 'H:\Mezzmo\TranscodedFiles\063B103E-41D5-43bc-BAFF-2BB5097D5B3C\Video\25982-mpegts_transcoding-libx264-aac.mzt':
    Metadata:
    major_brand : M4V
    minor_version : 0
    compatible_brands: M4V mp42isom
    creation_time : 2012-02-18 14:05:03
    title :
    artist :
    album_artist :
    album :
    genre : Drama
    track : 19
    disc : 1/1
    gapless_playback: 0
    date : 2012-02-26T08:00:00Z
    copyright :
    description :
    hd_video : 1
    network :
    show :
    episode_id : 210
    season_number : 2
    episode_sort : 19
    media_type : 10
    synopsis :
    encoder : Lavf54.5.100
    Stream #0:0(eng): Video: h264 (avc1 / 0x31637661), yuv420p, 1280x720 [SAR 1:1 DAR 16:9], q=2-31, 4046 kb/s, 23.98 fps, 90k tbn, 2997 tbc
    Metadata:
    creation_time : 2012-02-18 14:05:03
    handler_name : Apple Video Media Handler
    Stream #0:1(eng): Audio: aac (mp4a / 0x6134706D), 48000 Hz, stereo, 126 kb/s
    Metadata:
    creation_time : 2012-02-18 14:05:03
    handler_name : Apple Sound Media Handler
    Stream mapping:
    Stream #0:1 -> #0:0 (copy)
    Stream #0:0 -> #0:1 (copy)
    Press [q] to stop, [?] for help
    frame= 720 fps=0.0 q=-1.0 size= 36061kB time=00:00:29.58 bitrate=9983.7kbits/s
    frame= 1376 fps=1370 q=-1.0 size= 69566kB time=00:00:57.02 bitrate=9993.8kbits/s
    frame= 1860 fps=1234 q=-1.0 size= 94035kB time=00:01:17.03 bitrate=9999.9kbits/s
    frame= 2864 fps=1427 q=-1.0 size= 145288kB time=00:01:59.04 bitrate=9998.3kbits/s
    frame= 3369 fps=1344 q=-1.0 size= 170961kB time=00:02:20.05 bitrate=9999.8kbits/s
    frame= 4047 fps=1345 q=-1.0 size= 205781kB time=00:02:48.57 bitrate=10000.0kbits/s
    Failed to open bitstream filter h264_mp4toannexb for stream 0 with codec copy: Invalid argument
    Failed to open bitstream filter h264_mp4toannexb for stream 0 with codec copy: Invalid argument
    [mpegts @ 026df1a0] H.264 bitstream malformed, no startcode found, use the h264_mp4toannexb bitstream filter (-bsf h264_mp4toannexb)
    av_interleaved_write_frame(): Invalid data found when processing input

    <MEZZMO>: Child process ended with code: 109

    Any help on this particular error would be great...it seems that something in the conversion to output the stream finds an error and doesn't handle nicely. In the future, if you are looking for beta testers/profile testers, i would love to help!

    Thanks,
    Greg

  2. #2
    Join Date
    Nov 2007
    Location
    Melbourne, Australia
    Posts
    11,616

    Default

    Hi Greg,

    Thanks for reporting this. Contact us at support [at] conceiva [dot] com for a patch to fix this.

    Mezzmo Android: Install it on your tablet, smartphone, Android TV or Amazon Fire to browse and stream files from your Mezzmo library to all your devices. Full details at http://www.conceiva.com/products/mez...mo_android.asp
    Mezzmo for Kodi Add-on: Install it into Kodi to stream files from your Mezzmo library directly in Kodi. Full details at http://www.mezzmo.com/wiki/doku.php?...odi_user_guide
    Mezzmo for Roku App: Install it onto your Roku to stream files from your Mezzmo library. Full details at http://www.mezzmo.com/wiki/doku.php?...oku_user_guide
    Wiki: User Guides & Reference Manual at http://www.mezzmo.com/wiki
    Facebook: http://www.facebook.com/Mezzmo.DLNA.Server
    Twitter: https://twitter.com/conceiva_mezzmo
    Web: http://www.mezzmo.com

Similar Threads

  1. Poor Playback on Sony SMP-N100
    By JayR in forum Mezzmo Questions and Support
    Replies: 2
    Last Post: 12-22-2011, 06:49 PM
  2. MP4 / MKV Streaming on the Sony SMP-N100
    By jakedietz in forum Mezzmo Questions and Support
    Replies: 1
    Last Post: 12-05-2011, 10:03 AM
  3. Sony SMP-N100
    By dpetr in forum Mezzmo Questions and Support
    Replies: 1
    Last Post: 11-30-2011, 08:45 AM
  4. Sony SMP-N100
    By Keystone in forum Mezzmo Questions and Support
    Replies: 11
    Last Post: 09-07-2011, 09:10 AM
  5. Mezzmo support Sony SMP-N100?
    By dowzup in forum Mezzmo Questions and Support
    Replies: 2
    Last Post: 06-07-2011, 01:10 PM

Tags for this Thread

Bookmarks

Posting Permissions

  • You may not post new threads
  • You may not post replies
  • You may not post attachments
  • You may not edit your posts
  •