Results 1 to 7 of 7

Thread: Mezzmo 2.6 Transcoding/not transcoding problem divx Sony Bravia KDL

  1. #1
    Join Date
    Mar 2011
    Posts
    32

    Default Mezzmo 2.6 Transcoding/not transcoding problem divx Sony Bravia KDL

    Hello Paul,

    Mezzmo 2.6.2.0 and 2.6.3.0 works with avi(divx) when transcoding is turn off very well! (Sony Bravia KDL profile). As of the version 2640 works only trancode.
    M2ts files also stutter with 2660. Why do you always change the profiles?

  2. #2
    Join Date
    Nov 2007
    Location
    Melbourne, Australia
    Posts
    11,616

    Default

    Hi steve12,

    Sorry for your troubles. Please post the FFmpeg information on those files that will play on your Sony Bravia TV without transcoding. To do this, right-click on the file in Mezzmo and click 'Get FFmpeg Information'.

    Mezzmo Android: Install it on your tablet, smartphone, Android TV or Amazon Fire to browse and stream files from your Mezzmo library to all your devices. Full details at http://www.conceiva.com/products/mez...mo_android.asp
    Mezzmo for Kodi Add-on: Install it into Kodi to stream files from your Mezzmo library directly in Kodi. Full details at http://www.mezzmo.com/wiki/doku.php?...odi_user_guide
    Mezzmo for Roku App: Install it onto your Roku to stream files from your Mezzmo library. Full details at http://www.mezzmo.com/wiki/doku.php?...oku_user_guide
    Wiki: User Guides & Reference Manual at http://www.mezzmo.com/wiki
    Facebook: http://www.facebook.com/Mezzmo.DLNA.Server
    Twitter: https://twitter.com/conceiva_mezzmo
    Web: http://www.mezzmo.com

  3. #3
    Join Date
    Mar 2011
    Posts
    32

    Default

    Hello Paul,

    thanks for the support. I send the ffmpeg information with mail.

    steve

  4. #4
    Join Date
    Mar 2011
    Posts
    32

    Default

    Hello,

    It is the same problem. By all Sony KDL Profiles no avi File support without transcoding! (Sony KDL, 2010). Test it with 2661 and 2670. All m2ts play perfectly.
    Sony KDL 2012 Profile plays avi (divx) files but m2ts without transcoding works not.

    Avi Files not supported without transcoding

    ffmpeg version N-40693-gc457a29 Copyright (c) 2000-2012 the FFmpeg developers
    built on May 15 2012 12:57:14 with gcc 4.6.2
    configuration: --enable-memalign-hack --arch=x86 --target-os=mingw32 --cross-prefix=i686-w64-mingw32- --enable-static --disable-shared --enable-zlib --disable-postproc --prefix=/home/peter/ffmpeg/build/gpl --enable-libmp3lame --enable-libx264 --enable-gpl --extra-libs='-lx264 -lpthread' --enable-runtime-cpudetect --extra-cflags=-I/home/peter/cc/include --extra-ldflags=-L/home/peter/cc/lib --pkg-config=pkg-config --disable-w32threads
    libavutil 51. 51.100 / 51. 51.100
    libavcodec 54. 21.101 / 54. 21.101
    libavformat 54. 5.100 / 54. 5.100
    libavdevice 53. 4.100 / 53. 4.100
    libavfilter 2. 73.100 / 2. 73.100
    libswscale 2. 1.100 / 2. 1.100
    libswresample 0. 11.100 / 0. 11.100
    Input #0, avi, from 'D:\Video\Test\e_bl_xvid.avi':
    Metadata:
    encoder : VirtualDubMod 1.5.10.2 (build 2540/release)
    Duration: 01:31:22.00, start: 0.000000, bitrate: 1833 kb/s
    Stream #0:0: Video: mpeg4 (Advanced Simple Profile) (XVID / 0x44495658), yuv420p, 640x272 [SAR 1:1 DAR 40:17], 24 tbr, 24 tbn, 24.01 tbc
    Stream #0:1: Audio: ac3 ([0] [0][0] / 0x2000), 48000 Hz, 5.1(side), s16, 448 kb/s
    At least one output file must be specified


    ---> DB Level Info: 5, 15
    ---> Frame rate: 24,00
    ---> Aspect ratio: 40:17

    M2ts no picture no sound for this one file:

    ffmpeg version N-40693-gc457a29 Copyright (c) 2000-2012 the FFmpeg developers
    built on May 15 2012 12:57:14 with gcc 4.6.2
    configuration: --enable-memalign-hack --arch=x86 --target-os=mingw32 --cross-prefix=i686-w64-mingw32- --enable-static --disable-shared --enable-zlib --disable-postproc --prefix=/home/peter/ffmpeg/build/gpl --enable-libmp3lame --enable-libx264 --enable-gpl --extra-libs='-lx264 -lpthread' --enable-runtime-cpudetect --extra-cflags=-I/home/peter/cc/include --extra-ldflags=-L/home/peter/cc/lib --pkg-config=pkg-config --disable-w32threads
    libavutil 51. 51.100 / 51. 51.100
    libavcodec 54. 21.101 / 54. 21.101
    libavformat 54. 5.100 / 54. 5.100
    libavdevice 53. 4.100 / 53. 4.100
    libavfilter 2. 73.100 / 2. 73.100
    libswscale 2. 1.100 / 2. 1.100
    libswresample 0. 11.100 / 0. 11.100
    [mpegts @ 014abf40] max_analyze_duration 5000000 reached at 5004000
    Input #0, mpegts, from 'D:\Video\AC.DC.\ACDC.m2ts':
    Duration: 01:51:36.73, start: 599.958300, bitrate: 1766 kb/s
    Program 1
    Stream #0:0[0x1011](eng): Video: h264 (High) ([27][0][0][0] / 0x001B), yuv420p, 800x448 [SAR 1:1 DAR 25:14], 23.98 fps, 23.98 tbr, 90k tbn, 47.95 tbc
    Stream #0:1[0x1100](fre): Audio: aac ([15][0][0][0] / 0x000F), 48000 Hz, 5.1, s16, 270 kb/s
    At least one output file must be specified


    ---> DB Level Info: 40, 100
    ---> Frame rate: 23,98
    ---> Aspect ratio: 25:14


    RG
    Steve

  5. #5
    Join Date
    Nov 2007
    Location
    Melbourne, Australia
    Posts
    11,616

    Default

    Thanks for reporting this to us, Steve. We have sent you an updated device profile to try. Let us know how it goes.

    Mezzmo Android: Install it on your tablet, smartphone, Android TV or Amazon Fire to browse and stream files from your Mezzmo library to all your devices. Full details at http://www.conceiva.com/products/mez...mo_android.asp
    Mezzmo for Kodi Add-on: Install it into Kodi to stream files from your Mezzmo library directly in Kodi. Full details at http://www.mezzmo.com/wiki/doku.php?...odi_user_guide
    Mezzmo for Roku App: Install it onto your Roku to stream files from your Mezzmo library. Full details at http://www.mezzmo.com/wiki/doku.php?...oku_user_guide
    Wiki: User Guides & Reference Manual at http://www.mezzmo.com/wiki
    Facebook: http://www.facebook.com/Mezzmo.DLNA.Server
    Twitter: https://twitter.com/conceiva_mezzmo
    Web: http://www.mezzmo.com

  6. #6
    Join Date
    Mar 2011
    Posts
    32

    Default

    hello Paul,

    I have solved the problem now myself. The version is working for me now perfectly. I sent it to Peter.


    Sony BraviaKDL.prg

    1. aac audio listed in the mpegts container deleted
    2. avi support integrated from profile SonyBraviaKDL_2012

    BR
    Steve

  7. #7
    Join Date
    Nov 2007
    Location
    Melbourne, Australia
    Posts
    11,616

    Default

    Thanks for sending us your device profile, Steve.

    Mezzmo Android: Install it on your tablet, smartphone, Android TV or Amazon Fire to browse and stream files from your Mezzmo library to all your devices. Full details at http://www.conceiva.com/products/mez...mo_android.asp
    Mezzmo for Kodi Add-on: Install it into Kodi to stream files from your Mezzmo library directly in Kodi. Full details at http://www.mezzmo.com/wiki/doku.php?...odi_user_guide
    Mezzmo for Roku App: Install it onto your Roku to stream files from your Mezzmo library. Full details at http://www.mezzmo.com/wiki/doku.php?...oku_user_guide
    Wiki: User Guides & Reference Manual at http://www.mezzmo.com/wiki
    Facebook: http://www.facebook.com/Mezzmo.DLNA.Server
    Twitter: https://twitter.com/conceiva_mezzmo
    Web: http://www.mezzmo.com

Similar Threads

  1. Messzmo 2.6 Transcoding/not transcoding problem
    By dpetr in forum Mezzmo Questions and Support
    Replies: 20
    Last Post: 05-29-2012, 10:17 AM
  2. Transcoding problems since last Sony Bravia Update
    By Marten in forum Mezzmo Questions and Support
    Replies: 1
    Last Post: 03-26-2012, 09:53 AM
  3. Contuining problem transcoding video to Sony Blu Ray players
    By rmc021490 in forum Mezzmo Questions and Support
    Replies: 1
    Last Post: 10-24-2011, 09:17 AM
  4. Replies: 3
    Last Post: 09-08-2011, 09:46 PM
  5. How do I force transcoding on Bravia TV
    By AdamUpNorth in forum Mezzmo Questions and Support
    Replies: 1
    Last Post: 10-25-2010, 07:52 AM

Tags for this Thread

Bookmarks

Posting Permissions

  • You may not post new threads
  • You may not post replies
  • You may not post attachments
  • You may not edit your posts
  •