Results 1 to 4 of 4

Thread: Sony BDP-S590 Error playing MPEG2 in MKV container (file is corrupt or not supported)

  1. #1
    Join Date
    Sep 2012
    Posts
    1

    Default Sony BDP-S590 Error playing MPEG2 in MKV container (file is corrupt or not supported)

    I have a Sony BDP-S590. I'm using the Sony BDP, HT, SNP profile. On any file I try (even files that are supported directly from my NAS in native format), I get the message 'file is corrupt or not supported'. I did notice that the formats it is trying to transcode to are a bit off.

    The ffmpeg information from one of the MPEG2/MKV that I ripped using MakeMKV is below:
    ffmpeg version N-40693-gc457a29 Copyright (c) 2000-2012 the FFmpeg developers
    built on May 15 2012 12:57:14 with gcc 4.6.2
    configuration: --enable-memalign-hack --arch=x86 --target-os=mingw32 --cross-prefix=i686-w64-mingw32- --enable-static --disable-shared --enable-zlib --disable-postproc --prefix=/home/peter/ffmpeg/build/gpl --enable-libmp3lame --enable-libx264 --enable-gpl --extra-libs='-lx264 -lpthread' --enable-runtime-cpudetect --extra-cflags=-I/home/peter/cc/include --extra-ldflags=-L/home/peter/cc/lib --pkg-config=pkg-config --disable-w32threads
    libavutil 51. 51.100 / 51. 51.100
    libavcodec 54. 21.101 / 54. 21.101
    libavformat 54. 5.100 / 54. 5.100
    libavdevice 53. 4.100 / 53. 4.100
    libavfilter 2. 73.100 / 2. 73.100
    libswscale 2. 1.100 / 2. 1.100
    libswresample 0. 11.100 / 0. 11.100
    Input #0, matroska,webm, from '\\diskstation_lw\video\Movies\48 Hours.mkv':
    Metadata:
    creation_time : 2012-07-31 23:56:09
    Duration: 01:36:34.99, start: 0.000000, bitrate: 5850 kb/s
    Chapter #0.0: start 0.000000, end 312.445467
    Metadata:
    title : Chapter 01
    Chapter #0.1: start 312.445467, end 652.318333
    Metadata:
    title : Chapter 02
    Chapter #0.2: start 652.318333, end 1203.702500
    Metadata:
    title : Chapter 03
    Chapter #0.3: start 1203.702500, end 1452.083967
    Metadata:
    title : Chapter 04
    Chapter #0.4: start 1452.083967, end 1802.133667
    Metadata:
    title : Chapter 05
    Chapter #0.5: start 1802.133667, end 2214.011800
    Metadata:
    title : Chapter 06
    Chapter #0.6: start 2214.011800, end 2778.575800
    Metadata:
    title : Chapter 07
    Chapter #0.7: start 2778.575800, end 3449.746300
    Metadata:
    title : Chapter 08
    Chapter #0.8: start 3449.746300, end 3980.409767
    Metadata:
    title : Chapter 09
    Chapter #0.9: start 3980.409767, end 4278.207267
    Metadata:
    title : Chapter 10
    Chapter #0.10: start 4278.207267, end 4550.178967
    Metadata:
    title : Chapter 11
    Chapter #0.11: start 4550.178967, end 4770.532433
    Metadata:
    title : Chapter 12
    Chapter #0.12: start 4770.532433, end 5377.338633
    Metadata:
    title : Chapter 13
    Chapter #0.13: start 5377.338633, end 5550.144600
    Metadata:
    title : Chapter 14
    Chapter #0.14: start 5550.144600, end 5794.994000
    Metadata:
    title : Chapter 15
    Stream #0:0(eng): Video: mpeg2video (Main), yuv420p, 720x480 [SAR 8:9 DAR 4:3], 9800 kb/s, 29.97 fps, 29.97 tbr, 1k tbn, 59.94 tbc
    Stream #0:1(eng): Audio: ac3, 48000 Hz, 5.1(side), s16, 448 kb/s (default)
    Metadata:
    title : 3/2+1
    Stream #0:2(fre): Audio: ac3, 48000 Hz, stereo, s16, 192 kb/s
    Metadata:
    title : 2/0
    Stream #0:3(fre): Subtitle: dvd_subtitle (default)
    At least one output file must be specified


    ---> DB Level Info: 8, 4
    ---> Frame rate: 29.97
    ---> Aspect ratio: 4:3

  2. #2
    Join Date
    Nov 2007
    Location
    Melbourne, Australia
    Posts
    11,646

    Default

    Please contact us at support [at] conceiva [dot] com and we'll supply you with an updated device profile that should get you up and running.

    Mezzmo Android: Install it on your tablet, smartphone, Android TV or Amazon Fire to browse and stream files from your Mezzmo library to all your devices. Full details at http://www.conceiva.com/products/mez...mo_android.asp
    Mezzmo for Kodi Add-on: Install it into Kodi to stream files from your Mezzmo library directly in Kodi. Full details at http://www.mezzmo.com/wiki/doku.php?...odi_user_guide
    Mezzmo for Roku App: Install it onto your Roku to stream files from your Mezzmo library. Full details at http://www.mezzmo.com/wiki/doku.php?...oku_user_guide
    Wiki: User Guides & Reference Manual at http://www.mezzmo.com/wiki
    Facebook: http://www.facebook.com/Mezzmo.DLNA.Server
    Twitter: https://twitter.com/conceiva_mezzmo
    Web: http://www.mezzmo.com

  3. #3
    Join Date
    Feb 2014
    Posts
    4

    Default

    I would love a copy of that profile as well since I can't play MKV files with mpeg2 streams (converted with MakeMKV)

  4. #4
    Join Date
    Nov 2007
    Location
    Melbourne, Australia
    Posts
    11,646

    Default

    Since this thread is over 1 year old, that device profile will be in the latest version of Mezzmo (v3.4.0.0).

    Please post the FFmpeg information for the MKV file. Right-click on the file in Mezzmo and click 'Get FFmpeg Information'. Also let us know what device profile you are using for your device. Go to the Media Devices dialog to see this.

    Mezzmo Android: Install it on your tablet, smartphone, Android TV or Amazon Fire to browse and stream files from your Mezzmo library to all your devices. Full details at http://www.conceiva.com/products/mez...mo_android.asp
    Mezzmo for Kodi Add-on: Install it into Kodi to stream files from your Mezzmo library directly in Kodi. Full details at http://www.mezzmo.com/wiki/doku.php?...odi_user_guide
    Mezzmo for Roku App: Install it onto your Roku to stream files from your Mezzmo library. Full details at http://www.mezzmo.com/wiki/doku.php?...oku_user_guide
    Wiki: User Guides & Reference Manual at http://www.mezzmo.com/wiki
    Facebook: http://www.facebook.com/Mezzmo.DLNA.Server
    Twitter: https://twitter.com/conceiva_mezzmo
    Web: http://www.mezzmo.com

Similar Threads

  1. Sony BDP-S590 Error playing MP4 ...file is corrupt or not supported
    By aojuk in forum Mezzmo Questions and Support
    Replies: 5
    Last Post: 08-30-2012, 04:43 PM
  2. Mezzmo Video Error: "File Not Supported" - Suggested Fix for mkv files
    By bigdog in forum Mezzmo Questions and Support
    Replies: 0
    Last Post: 03-31-2011, 10:33 AM
  3. Random MKV's not playing (Not Supported File Format)
    By Josip in forum Mezzmo Questions and Support
    Replies: 11
    Last Post: 11-01-2010, 04:56 PM
  4. Sony BDP-S373 mkv file error - data type is not supported
    By kathat in forum Mezzmo Questions and Support
    Replies: 1
    Last Post: 09-13-2010, 09:06 AM
  5. PS3 mkv file error - data type is not supported
    By code2 in forum Mezzmo Questions and Support
    Replies: 1
    Last Post: 08-02-2010, 08:44 AM

Tags for this Thread

Bookmarks

Posting Permissions

  • You may not post new threads
  • You may not post replies
  • You may not post attachments
  • You may not edit your posts
  •